<?xml version="1.0" standalone="no"?>
<!DOCTYPE svg PUBLIC "-//W3C//DTD SVG 1.1//EN" "http://www.w3.org/Graphics/SVG/1.1/DTD/svg11.dtd" >
<svg xmlns="http://www.w3.org/2000/svg">
<metadata>Generated by IcoMoon</metadata>
<defs>
<font id="icomoon" horiz-adv-x="1024">
<font-face units-per-em="1024" ascent="960" descent="-64" />
<missing-glyph horiz-adv-x="1024" />
<glyph unicode="&#x20;" horiz-adv-x="512" d="" />
<glyph unicode="&#x1222;" glyph-name="expand" d="M829.059 766.128l-0.139 0.139c-175.246 175.389-460.73 175.32-636.118-0.068-84.982-84.983-131.791-197.911-131.791-317.989 0.035-120.117 46.809-233.217 131.861-318.27l0.136-0.136c175.422-175.422 460.837-175.354 636.188-0.003 175.39 175.389 175.354 460.977-0.137 636.327zM246.553 183.762l0.003-0.138-0.209 0.209c-70.61 70.611-109.611 164.469-109.542 264.444-0.072 99.837 38.932 193.767 109.542 264.513 145.955 145.819 383.145 145.818 528.96 0.003 145.782-145.782 145.815-383.146-0.001-528.962-145.851-145.851-383.038-145.919-528.753-0.069zM719.619 410.173c20.899 0.033 37.932 17.066 38 38 0.035 20.9-17.169 37.967-38 38l-170.861-0.070 0.067 170.864c0 20.935-17.132 37.93-37.998 37.998-20.868 0.070-38.003-17.064-38-38.001v-170.791h-170.791c-20.902 0.174-37.966-16.891-38.003-37.861 0.071-10.433 4.287-19.898 11.229-26.84 6.945-6.945 16.339-11.090 26.772-11.161l170.793 0.003v-170.796c0.069-10.431 4.284-19.896 11.124-26.735 6.908-6.908 16.374-11.123 26.874-11.263 21.008 0 38.072 17.063 37.933 37.933v170.79l0.068-0.068 170.793-0.002z" />
<glyph unicode="&#xe111;" glyph-name="auto-large" d="M838.679 238.132c-0.426 2.565-1.649 4.957-3.491 6.782l-237.197 237.197c68.204 110.584-7.437 186.247-55.472 234.293-74.965 74.949-126.879 105.539-179.212 105.539-44.817 0-89.285-23.604-139.969-74.304-123.195-123.21-89.93-198.049 31.219-319.183 39.701-39.701 87.208-82.046 148.75-82.046 35.068 0 70.329 13.551 106.885 41.204l237.49-237.491c2.125-2.14 4.957-3.43 7.947-3.619l36.885-2.596c0.299-0.017 0.601-0.032 0.881-0.032 3.305 0 6.482 1.307 8.823 3.666l39.595 39.591c2.846 2.863 4.151 6.895 3.491 10.873l-6.625 40.126zM403.308 371.382c-52.008 0-94.934 38.569-131.094 74.729-116.256 116.256-138.444 176.618-31.221 283.872 45.697 45.697 84.564 66.971 122.314 66.971 44.988 0 91.785-28.449 161.559-98.207 56.082-56.095 132.887-132.917 6.592-259.229-45.853-45.838-87.772-68.136-128.15-68.136zM788.594 169.227l-26.561 1.856-232.436 232.421c6.459 5.689 12.962 11.803 19.518 18.36 13.542 13.544 24.976 26.648 34.531 39.322l231.054-231.095 4.926-29.835-31.032-31.029zM364.157 756.682c-8.655 8.671-22.754 9.615-30.512 1.904l-124.879-124.91c-3.557-3.522-5.508-8.338-5.508-13.562 0-6.105 2.676-12.274 7.35-16.947l19.779-19.78c4.674-4.687 10.857-7.361 16.947-7.361 5.209 0 10.023 1.936 13.564 5.477l124.895 124.905c3.555 3.526 5.508 8.372 5.508 13.596-0.017 6.105-2.707 12.274-7.365 16.9l-19.779 19.778zM246.594 602.509l-16.836 16.868 118.189 118.207 16.838-16.885-118.191-118.19zM512.008 960.008c-282.315 0-512.008-229.678-512.008-512.008s229.693-512.008 512.008-512.008c282.314 0 511.992 229.678 511.992 512.008s-229.677 512.008-511.992 512.008zM512.008-39.020c-268.56 0-487.035 218.475-487.035 487.020s218.474 487.020 487.035 487.020c268.545 0 487.004-218.475 487.004-487.020s-218.459-487.020-487.004-487.020z" />
<glyph unicode="&#xe122;" glyph-name="auto-medium" d="M974.675 72.643l-8.741 52.886c-0.619 3.792-2.415 7.305-5.13 10.019l-311.647 311.665c89.47 146.298-10.656 246.422-74.283 310.057-99.247 99.247-168.119 139.729-237.679 139.729-59.632 0-118.715-31.312-185.94-98.538-80.657-80.666-111.441-147.054-99.805-215.257 11.515-67.435 64.681-132.076 140.977-208.372 52.617-52.606 115.611-108.746 197.516-108.746 46.232 0 92.677 17.677 140.757 53.715l311.979-311.979c3.134-3.133 7.305-5.029 11.715-5.328l48.636-3.433c0.439-0.040 0.858-0.060 1.297-0.060 4.87 0 9.54 1.936 13.013 5.408l52.207 52.247c4.189 4.192 6.105 10.139 5.128 15.987zM218.43 400.856c-154.847 154.847-182.497 230.255-41.171 371.601 59.881 59.871 110.701 87.762 159.936 87.762 58.744 0 120.072-37.36 211.656-128.953 77.473-77.483 173.905-173.906 8.701-339.11-60.072-60.091-114.894-89.288-167.61-89.288-67.845-0.001-124.104 50.57-171.512 97.988zM897.241 36.34l-33.408 2.355-304.528 304.529c8.036 7.136 16.123 14.763 24.271 22.907 17.291 17.293 31.982 34.042 44.37 50.266l302.664-302.683 6.246-37.739-39.615-39.635zM339.679 810.396c-12.113 12.153-32.021 13.371-42.957 2.515l-164.696-164.707c-5.039-5.019-7.812-11.854-7.823-19.259 0-8.571 3.752-17.223 10.258-23.709l26.114-26.123c6.516-6.507 15.157-10.259 23.699-10.259 7.384 0 14.22 2.774 19.229 7.784l164.726 164.745c5.029 5.029 7.793 11.864 7.793 19.269-0.010 8.552-3.762 17.184-10.268 23.659l-26.075 26.085zM183.276 608.439l-19.488 19.498 153.15 153.171 19.498-19.498-153.16-153.171z" />
<glyph unicode="&#xe133;" glyph-name="auto-small" d="M974.15 83.506l-1.349 44.188c-0.209 7.955-3.489 15.549-9.129 21.145l-301.776 301.734c29.156 51.288 37.583 101.263 25.724 151.078-16.244 68.062-67.667 119.463-105.202 156.979-98.974 98.973-168.492 139.37-239.858 139.37-61.607 0-121.866-31.602-189.702-99.437-81.595-81.594-112.606-149.597-100.487-220.418 11.741-68.863 64.634-133.479 140.38-209.225 52.939-52.893 116.439-109.325 200.936-109.325 44.734 0 89.347 15.761 135.047 47.881l300.358-300.322c5.853-5.892 13.808-9.153 22.052-9.153 0.674 0 1.39 0.021 2.068 0.062l41.198 2.693c7.573 0.504 14.683 3.744 20.026 9.088l50.584 50.624c6.102 6.1 9.427 14.434 9.13 23.038zM393.686 322.064c-60.64 0-110.673 44.981-156.751 91.041-58.238 58.262-113.448 119.847-122.958 175.561-8.332 48.812 17.253 99.921 83.065 165.693 55.337 55.356 101.584 81.152 145.518 81.152 52.304 0 110.838-36.211 195.674-121.069 32.271-32.254 76.461-76.417 88.58-127.272 11.939-50.135-8.159-103.531-61.359-162.725l-37.769-37.787c-47.741-42.877-92.728-64.594-134-64.594zM878.577 62.342l-15.316-0.988-286.008 285.967c4.526 4.242 9.067 8.628 13.624 13.183 7.015 7.016 13.655 13.995 19.94 20.944l15.906 15.922 284.001-283.96 0.547-18.308-32.694-32.76zM322.359 752.78l-118.497-118.457c-12.204-12.206-12.204-31.983 0-44.188 6.099-6.099 14.096-9.15 22.090-9.15 7.996 0 15.99 3.052 22.093 9.153l118.499 118.477c12.203 12.204 12.203 31.962 0 44.165-12.204 12.204-31.981 12.204-44.185 0z" />
<glyph unicode="&#xe144;" glyph-name="business-large" d="M779.359 619.988h-176.33v60.016c0 6.907-5.602 12.494-12.494 12.494h-146.844c-6.893 0-12.494-5.587-12.494-12.494v-60.016h-183.568c-6.89 0-12.494-5.586-12.494-12.493v-164.499c0-3.526 1.479-6.703 3.836-8.976 0.062-0.062 0.126-0.122 0.189-0.184 0.104-0.096 0.206-0.191 0.313-0.284 1.972-1.791 4.512-2.962 7.322-3.201v-180.271c0-6.894 5.601-12.479 12.492-12.479h508.020c6.893 0 12.494 5.586 12.491 12.479v179.979c3.103 0.098 6.062 1.356 8.293 3.56 2.408 2.344 3.763 5.552 3.763 8.906v164.97c0 6.907-5.602 12.493-12.495 12.493zM456.186 667.525h121.855v-47.029h-121.855v47.029zM332.945 595.017h361.098v-139.749h-130.855v14.447c0 6.908-5.604 12.494-12.494 12.494h-79.812c-6.89 0-12.494-5.586-12.494-12.494v-14.447h-125.443v139.749zM538.199 457.237v-33.029h-54.822v33.029h54.822zM260.121 455.459v139.558h47.836v-139.749h-46.365c-0.483 0.088-0.971 0.16-1.471 0.191zM754.812 262.573h-483.031v167.725h36.176v-20.944c0-6.892 5.603-12.478 12.494-12.478 6.893 0 12.494 5.586 12.494 12.478v20.944h125.442v-18.584c0-6.892 5.602-12.478 12.494-12.478h79.812c6.891 0 12.494 5.586 12.494 12.478v18.584h130.855v-20.944c0-6.892 5.602-12.478 12.494-12.478s12.494 5.586 12.494 12.478v20.944h35.781v-167.725zM766.867 455.27c-0.008 0-0.015-0.001-0.022-0.002h-47.813v139.749h47.836v-139.747zM512.016 960c-282.327 0-512.016-229.675-512.016-512s229.689-512 512.016-512c282.308 0 511.984 229.675 511.984 512s-229.676 512-511.984 512zM512.015-39.012c-268.556 0-487.029 218.471-487.029 487.012s218.473 487.013 487.030 487.013c268.541 0 486.995-218.472 486.995-487.013s-218.455-487.012-486.996-487.012z" />
<glyph unicode="&#xe155;" glyph-name="business-medium" d="M943.682 697.61h-288.274v99.412c0 10.117-8.201 18.319-18.318 18.319h-238.426c-10.119 0-18.32-8.202-18.32-18.319v-99.412h-300.026c-10.117 0-18.318-8.201-18.318-18.319v-267.079c0-5.174 2.172-9.799 5.621-13.133 3.244-3.321 7.715-5.365 12.697-5.468l0.613-294.634c0-10.118 8.201-18.319 18.318-18.319h824.859c10.119 0 18.32 8.201 18.32 18.319v294.174l0.867-0.013c4.65-0.702 9.658 1.776 13.209 5.226 3.502 3.436 5.494 8.162 5.494 13.081v267.846c0.002 10.118-8.199 18.319-18.316 18.319zM416.982 778.704h201.788v-80.992h-201.788v80.992zM216.879 660.973h590.24v-230.8h-216.402v25.409c0 10.117-8.201 18.318-18.318 18.318h-129.587c-10.117 0-18.318-8.201-18.318-18.318v-25.409h-207.615v230.8zM554.080 437.263v-57.524h-92.949v57.524h92.949zM99.25 430.53l-0.613 230.442h81.605v-230.8h-79.229c-0.613 0.064-1.124 0.358-1.763 0.358zM905.791 117.296h-788.221v276.239h62.672v-35.948c0-10.117 8.201-18.318 18.318-18.318s18.318 8.201 18.318 18.318v35.948h207.615v-32.116c0-10.117 8.201-18.318 18.318-18.318h129.586c10.117 0 18.318 8.201 18.318 18.318v32.116h216.402v-35.948c0-10.117 8.203-18.318 18.32-18.318s18.318 8.201 18.318 18.318v35.948h62.033v-276.239zM925.361 430.173h-81.604v230.8h81.604v-230.8z" />
<glyph unicode="&#xe166;" glyph-name="business-small" d="M929.65 704.131h-264.253v81.574c0 17.884-14.525 32.363-32.386 32.363h-230.646c-17.909 0-32.35-14.478-32.35-32.363v-81.574h-275.673c-17.908 0-32.342-14.459-32.342-32.344v-258.405c0-9.644 4.182-18.31 10.856-24.231 2.212-2.021 4.708-3.735 7.417-5.085v-273.746c0-17.89 14.517-32.389 32.384-32.389h798.069c17.908 0 32.349 14.499 32.349 32.386v272.884c3.427 1.55 6.523 3.67 9.215 6.3 6.201 6.118 9.71 14.439 9.71 23.148v259.138c0 17.885-14.441 32.344-32.35 32.344zM434.708 753.34h165.921v-48.331h-165.921v48.331zM665.232 639.422h232.076v-194.001h-288.439v11.665c0 17.906-14.484 32.365-32.391 32.365h-125.373c-17.869 0-32.352-14.46-32.352-32.365v-11.665h-292.068v194.001h538.547zM544.135 424.7v-26.368h-60.646v26.368h60.646zM145.040 142.681v237.991h273.714v-14.703c0-17.886 14.484-32.365 32.352-32.365h125.373c17.909 0 32.391 14.479 32.391 32.365v14.703h269.514v-237.991h-733.344z" />
<glyph unicode="&#xe177;" glyph-name="checking-large" d="M512 959.992c-282.31 0-512-229.675-512-511.992s229.69-511.992 512-511.992c282.326 0 512 229.674 512 511.992 0 282.317-229.674 511.992-512 511.992zM512-39.020c-268.541 0-487.012 218.479-487.012 487.020s218.471 487.020 487.012 487.020 487.012-218.479 487.012-487.020-218.471-487.020-487.012-487.020zM805.369 428.335c0 7.308-5.915 13.234-13.231 13.234h-560.136c-7.316 0-13.248-5.924-13.248-13.234 0-7.306 5.932-13.229 13.248-13.229h560.137c7.316-0.001 13.231 5.923 13.23 13.229zM792.139 368.029h-215.119c-7.302 0-13.22-5.922-13.22-13.234 0-7.305 5.918-13.229 13.22-13.229h215.119c7.316 0 13.231 5.925 13.231 13.229 0 7.309-5.915 13.234-13.231 13.234zM227.219 538.581h107.772c7.318 0 13.234 5.924 13.234 13.234 0 7.306-5.916 13.23-13.234 13.23h-107.772c-7.316 0-13.25-5.922-13.25-13.23 0-7.309 5.934-13.234 13.25-13.234zM334.991 502.806c7.318 0 13.234 5.925 13.234 13.234 0 7.307-5.916 13.233-13.234 13.233h-107.772c-7.316 0-13.25-5.925-13.25-13.233 0-7.31 5.934-13.234 13.25-13.234h107.772zM883.324 502.593c0 4.367-2.124 8.224-5.381 10.636l-109.706 109.826c-2.486 2.485-5.856 3.878-9.379 3.878h-604.62c-7.317 0-13.248-5.922-13.248-13.23v-327.95c0-7.307 5.932-13.233 13.248-13.233h715.522c7.318 0 13.25 5.924 13.248 13.232v213.987c0.202 0.92 0.316 1.873 0.316 2.854zM837.846 515.826h-65.738v65.812l65.738-65.812zM167.457 298.984v301.484h578.179v-97.878c0-7.307 5.918-13.23 13.222-13.23h97.687v-190.375h-689.088z" />
<glyph unicode="&#xe188;" glyph-name="checking-medium" d="M898.979 434.384h-774.223c-9.534 0-17.261-7.733-17.261-17.28s7.727-17.281 17.261-17.281h774.223c9.554 0 17.3 7.736 17.303 17.281-0.001 9.546-7.747 17.28-17.303 17.28zM898.979 332.729h-297.31c-9.535 0-17.285-7.724-17.285-17.28 0-9.533 7.75-17.263 17.285-17.263h297.31c9.554 0 17.3 7.727 17.303 17.263-0.001 9.553-7.747 17.28-17.303 17.28zM118.159 570.496h148.963c9.535 0 17.28 7.736 17.28 17.282s-7.745 17.282-17.28 17.282h-148.963c-9.554 0-17.281-7.738-17.281-17.282 0-9.546 7.726-17.282 17.281-17.282zM267.122 521.043c9.535 0 17.28 7.727 17.28 17.282 0 9.546-7.745 17.282-17.28 17.282h-148.963c-9.554 0-17.281-7.736-17.281-17.282 0-9.556 7.726-17.282 17.281-17.282h148.963zM1024 519.504c0 5.205-2.315 9.874-5.957 13.043l-152.811 152.986c-3.246 3.236-7.643 5.065-12.246 5.065h-835.705c-9.535 0-17.281-7.738-17.281-17.282v-453.3c0-9.535 7.746-17.271 17.281-17.271h989.004c9.535 0 17.281 7.736 17.282 17.271v295.693c0.276 1.223 0.433 2.49 0.433 3.795zM964.591 536.785h-94.3v94.404l94.3-94.404zM34.566 237.307v418.727h801.156v-136.531c0-9.535 7.729-17.282 17.265-17.282h136.018v-264.914h-954.439z" />
<glyph unicode="&#xe199;" glyph-name="commercial-medium" d="M928.732 513.357h-287.513v315.039c0 10.841-8.802 19.604-19.628 19.604h-526.322c-10.828 0-19.629-8.763-19.629-19.604v-760.78c0-10.828 8.801-19.616 19.629-19.616h526.322c0.101 0 0.197 0.014 0.298 0.015 0.1-0.001 0.196-0.015 0.297-0.015h306.547c10.828 0 19.628 8.788 19.631 19.616v426.125c-0.001 10.828-8.803 19.616-19.632 19.616zM601.961 87.221h-487.064v721.559h487.064v-721.559zM909.102 87.221h-267.288v386.891h267.287v-386.891zM226.811 600.364h83.115c10.853 0 19.605 8.775 19.604 19.617v82.409c0 10.828-8.752 19.604-19.604 19.604h-83.115c-10.852 0-19.602-8.776-19.602-19.604v-82.409c0-10.843 8.75-19.617 19.602-19.617zM246.417 682.774h43.905v-43.176h-43.905v43.176zM226.811 435.521h83.115c10.853 0 19.605 8.789 19.604 19.628v82.407c0 10.843-8.752 19.616-19.604 19.616h-83.115c-10.852 0-19.602-8.773-19.602-19.616v-82.407c0-10.841 8.75-19.628 19.602-19.628zM246.417 517.945h43.905v-43.179h-43.905v43.179zM226.811 270.69h83.115c10.853 0 19.605 8.777 19.604 19.613v82.41c0 10.84-8.752 19.617-19.604 19.617h-83.115c-10.852 0-19.602-8.777-19.602-19.617v-82.41c0-10.838 8.75-19.613 19.602-19.613zM246.417 353.101h43.905v-43.165h-43.905v43.165zM406.933 600.364h83.114c10.852 0 19.605 8.775 19.605 19.617v82.409c0 10.828-8.751 19.604-19.605 19.604h-83.114c-10.852 0-19.602-8.776-19.602-19.604v-82.409c0-10.843 8.75-19.617 19.602-19.617zM426.537 682.774h43.906v-43.176h-43.906v43.176zM406.933 435.521h83.114c10.852 0 19.605 8.789 19.605 19.628v82.407c0 10.843-8.751 19.616-19.605 19.616h-83.114c-10.852 0-19.602-8.773-19.602-19.616v-82.407c0-10.841 8.75-19.628 19.602-19.628zM426.537 517.945h43.906v-43.179h-43.906v43.179zM406.933 270.69h83.114c10.852 0 19.605 8.777 19.605 19.613v82.41c0 10.84-8.751 19.617-19.605 19.617h-83.114c-10.852 0-19.602-8.777-19.602-19.617v-82.41c0-10.838 8.75-19.613 19.602-19.613zM426.537 353.101h43.906v-43.165h-43.906v43.165zM733.9 271.186h83.115c10.853 0 19.602 8.776 19.602 19.617v82.422c0 10.828-8.75 19.604-19.604 19.604h-83.113c-10.853 0-19.604-8.777-19.604-19.604v-82.422c0-10.841 8.75-19.617 19.604-19.617zM753.506 353.594h43.905v-43.188h-43.905v43.188z" />
<glyph unicode="&#xe200;" glyph-name="commercial-small" d="M987.891 517.968h-226.683v271.078c0 16.003-11.944 28.954-26.652 28.954h-434.131c-14.738 0-26.622-12.952-26.622-28.954v-358.27h-237.694c-14.738 0-26.623-12.972-26.623-28.95v-294.875c0-15.997 11.885-28.951 26.623-28.951h252.87c1.963 0 3.875 0.238 5.718 0.676 1.845-0.438 3.759-0.676 5.728-0.676h434.132c0.078 0 0.154 0.006 0.232 0.007 0.078-0.001 0.154-0.007 0.232-0.007h252.871c14.736 0 26.621 12.954 26.619 28.952v382.044c0.001 16.014-11.884 28.972-26.62 28.972zM262.322 135.906h-199.597v236.945h199.597v-236.945zM707.906 135.906h-380.866v624.19h380.866v-624.19zM961.279 135.906h-199.604v324.155h199.604v-324.155z" />
<glyph unicode="&#xe210;" glyph-name="credit-large" d="M512.016 960.016c-282.335 0-512.016-229.682-512.016-512.016s229.681-512.016 512.016-512.016c282.302 0 511.984 229.683 511.984 512.016s-229.682 512.016-511.984 512.016zM512.016-39.027c-268.564 0-487.058 218.478-487.058 487.027s218.493 487.027 487.058 487.027c268.549 0 487.027-218.477 487.027-487.027 0-268.548-218.479-487.027-487.027-487.027zM810.054 693.575h-596.156c-42.425 0-76.933-34.508-76.933-76.917v-331.935c0-42.423 34.508-76.933 76.933-76.933h596.156c42.425 0 76.948 34.51 76.948 76.931v331.937c0 42.409-34.523 76.917-76.948 76.917zM213.898 668.602h596.156c27.351 0 49.812-21.236 51.801-48.073h-699.773c1.99 26.837 24.465 48.073 51.816 48.073zM862.014 284.722c0-28.639-23.306-51.959-51.96-51.959h-596.156c-28.655 0-51.976 23.32-51.976 51.959v251.762h700.092v-251.762zM862.014 561.456h-700.092v34.098h700.092v-34.098zM412.077 385.827h385.892c6.894 0 12.495 5.587 12.495 12.476v53.977c0 6.907-5.599 12.494-12.495 12.494h-385.892c-6.908 0-12.479-5.587-12.479-12.494v-53.975c0-6.891 5.571-12.478 12.479-12.478zM424.555 439.802h360.919v-29.002h-360.919v29.002zM268.674 382.885h33.313c24.659 0 44.706 20.048 44.706 44.725 0 24.641-20.047 44.688-44.706 44.688h-33.313c-24.656 0-44.721-20.045-44.721-44.688 0-24.677 20.065-44.725 44.721-44.725zM268.674 447.323h33.313c10.875 0 19.75-8.861 19.75-19.717 0-10.893-8.875-19.749-19.75-19.749h-33.313c-10.888 0-19.732 8.856-19.732 19.749 0 10.859 8.843 19.717 19.732 19.717z" />
<glyph unicode="&#xe222;" glyph-name="credit-medium" d="M918.969 779.622h-813.914c-57.918 0-105.055-47.113-105.055-105.034v-453.154c0-57.922 47.137-105.057 105.055-105.057h813.914c57.918 0 105.031 47.135 105.031 105.056v453.155c0 57.921-47.113 105.034-105.031 105.034zM989.93 645.8v-46.564h-955.813v46.564h955.813zM105.055 745.528l813.914-0.001c37.334 0 68.014-28.992 70.741-65.632h-955.374c2.726 36.641 33.385 65.633 70.719 65.633zM918.969 150.485h-813.914c-39.122 0-70.938 31.825-70.938 70.948v343.697h955.813v-343.696c0-39.123-31.84-70.949-70.961-70.949zM902.469 467.25h-526.848c-9.411 0-17.059-7.627-17.059-17.048v-73.688c0-9.422 7.649-17.049 17.059-17.049h526.848c9.43 0 17.035 7.627 17.035 17.049v73.688c0 9.421-7.606 17.048-17.035 17.048zM885.43 393.561h-492.75v39.597h492.75v-39.597zM225.324 477.52h-45.484c-33.664 0-61.035-27.382-61.035-61.034 0-33.664 27.371-61.048 61.035-61.048h45.484c33.641 0 61.035 27.381 61.035 61.048 0 33.652-27.394 61.034-61.035 61.034zM225.324 389.524h-45.484c-14.844 0-26.961 12.105-26.961 26.961 0 14.843 12.117 26.938 26.961 26.938h45.484c14.844 0 26.938-12.093 26.938-26.938 0-14.857-12.094-26.961-26.938-26.961z" />
<glyph unicode="&#xe233;" glyph-name="credit-small" d="M929.656 777.913h-835.312c-17.904 0-32.344-14.48-32.344-32.384v-595.079c0-17.886 14.44-32.363 32.344-32.363h835.312c17.905 0 32.345 14.478 32.346 32.363v595.079c-0.001 17.904-14.445 32.384-32.346 32.384zM897.312 713.185v-114.937h-770.623v114.937h770.623zM126.689 182.793v331.924h770.624v-331.924h-770.624z" />
<glyph unicode="&#xe24c;" glyph-name="gripperup" d="M509.943 573.368l481.999-157.949c24.424-8 37.741-34.287 29.727-58.727-8.016-24.423-34.362-37.649-58.726-29.726l-452.696 148.344-448.893-150.252c-24.516-8.182-50.757 5.015-58.938 29.362-8.15 24.378 5 50.757 29.363 58.907l478.164 160.041z" />
<glyph unicode="&#xe266;" glyph-name="grouped-arrow" d="M587.807 4.5c-10.019 0-20.038 3.825-27.689 11.475-15.301 15.301-15.301 40.080 0 55.382l185.835 185.859h-562.492c-21.644 0-39.166 17.522-39.166 39.166v555.952c0 21.644 17.522 39.166 39.166 39.166s39.167-17.522 39.167-39.166v-516.785h523.325l-185.836 185.834c-7.649 7.65-11.477 17.671-11.477 27.69s3.827 20.041 11.477 27.69c15.301 15.301 40.078 15.301 55.38 0l252.718-252.691c0.048-0.025 0.123 0 0.098-0.099 0.025 0 0.051-0.024 0.073-0.050v-0.025c5.159-5.206 8.614-11.599 10.243-18.435v0c0-0.024 0.024-0.075 0.024-0.098v-0.025c0-0.050 0.025-0.101 0.025-0.148 0.048-0.050 0-0.098 0.048-0.098 0-0.025 0-0.025 0-0.051 0.224-0.962 0.396-1.949 0.543-2.937 0 0 0.025-0.049 0.025-0.099v-0.025c0-0.024 0.050-0.147 0.024-0.147 0-0.025 0-0.049 0-0.049 0-0.024 0-0.1 0.025-0.1 0.839-6.119 0.222-12.462-1.925-18.485-0.025-0.024-0.025-0.048-0.025-0.073l-0.024-0.024c-0.396-1.111-0.84-2.222-1.357-3.308 0 0 0 0-0.025-0.072-0.024-0.025-0.024-0.051-0.048-0.075v0c-2-4.22-4.689-7.972-7.897-11.155l-252.545-252.52c-7.649-7.649-17.669-11.474-27.69-11.474z" />
<glyph unicode="&#xe277;" glyph-name="home-medium" d="M804.086 583.766c-0.115 0.018-0.226 0.049-0.342 0.065-15.246 2.11-26.91 9.158-29.699 18.011-2.527 7.989 3.284 14.967 6.934 18.387 4.99 4.638 11.778 7.009 19.402 7.21 0.309-0.015 0.613-0.046 0.926-0.046 0.094 0 0.164 0 0.234 0.004 0.254 0.003 0.499 0.035 0.75 0.048 10.752-0.217 22.957-4.589 34.056-12.861 8.226-6.161 19.863-4.451 26 3.771 6.14 8.245 4.449 19.886-3.797 26.021-12.351 9.211-25.671 15.287-38.877 18.224l-0.144 10.117c-0.141 10.259-8.406 18.55-18.828 18.339-10.262-0.141-18.457-8.572-18.316-18.83l0.124-10.042c-9.96-2.694-19.115-7.588-26.823-14.739-16.957-15.833-23.353-37.076-17.099-56.847 7.353-23.116 29.79-39.418 60.052-43.587 0.022-0.003 0.044-0.004 0.066-0.007 15.189-2.087 26.822-9.133 29.633-17.984 2.504-7.937-3.328-14.893-7.027-18.359-4.85-4.5-11.394-6.849-18.742-7.16-0.599 0.028-1.205 0.030-1.82-0.006-0.159-0.002-0.313-0.024-0.472-0.030-10.79 0.157-23.061 4.521-34.192 12.817-8.247 6.162-19.911 4.45-26.023-3.771-6.138-8.246-4.45-19.859 3.772-26.021 12.333-9.203 25.625-15.283 38.802-18.222l0.125-10.142c0.144-10.191 8.43-18.339 18.594-18.339 0.094 0 0.164 0 0.234 0 10.285 0.141 18.504 8.549 18.363 18.831l-0.143 10.053c9.965 2.7 19.107 7.62 26.797 14.771 17.004 15.808 23.422 37.051 17.145 56.818-7.274 23.042-29.579 39.298-59.665 43.506zM1024 565.044c0 122.659-99.798 222.458-222.459 222.458-58.655 0-112.072-22.833-151.859-60.063l-168.312 115.969c-5.949 4.104-13.685 4.361-19.858 0.792-1.28-0.508-2.526-1.151-3.706-1.966l-357.784-246.511c-0.674-0.465-1.309-0.972-1.908-1.512l-90.093-62.123c-8.433-5.832-10.562-17.4-4.73-25.854 3.605-5.223 9.414-8.033 15.316-8.033 3.629 0 7.309 1.077 10.539 3.278l62.85 43.341 0.437-476.946c0.024-10.282 8.34-18.573 18.598-18.573l717.683 0.682c4.918 0 9.649 1.968 13.114 5.457 3.516 3.49 5.457 8.222 5.434 13.14l-0.289 278.679c100.947 21.030 177.027 110.691 177.027 217.785zM414.773 89.946l0.062 148.004 115.75-0.089-0.104-147.981-115.708 0.066zM810.069 87.151l-242.414-0.233 0.112 169.524c-0.014 10.259-8.311 18.593-18.592 18.581l-152.896 0.126c-0.023-0.001-0.070-0.002-0.117-0.002-4.872-0.028-9.567-1.999-13.039-5.439-3.492-3.489-5.432-8.228-5.449-13.146l-0.066-169.828-248.007-0.239-0.465 483.937 93.136 64.227 248.513 170.878 153.744-105.928c-28.494-37.392-45.442-84.034-45.442-134.565 0-122.658 99.798-222.457 222.455-222.457 2.768 0 5.519 0.068 8.262 0.169l0.265-255.605zM801.541 379.78c-102.161 0-185.264 83.1-185.264 185.264 0 102.165 83.103 185.265 185.264 185.265 102.165 0 185.268-83.1 185.268-185.265s-83.103-185.264-185.268-185.264z" />
<glyph unicode="&#xe288;" glyph-name="home-small" d="M796.426 485.794v117.873l49.512-34.323c5.093-3.543 10.891-5.224 16.648-5.224 9.305 0 18.427 4.393 24.113 12.589 9.226 13.292 5.941 31.568-7.385 40.78l-392.847 272.353c-1.307 0.908-2.663 1.689-4.053 2.357l-0.596 0.413c-4.591 3.176-9.858 4.88-15.184 5.152-6.859 0.862-14.046-0.679-20.189-4.875l-400.527-274.107c-13.368-9.141-16.798-27.378-7.643-40.744 5.685-8.289 14.844-12.737 24.222-12.737 5.685 0 11.446 1.661 16.502 5.113l51.951 35.554v-380.181c0-16.192 13.068-29.296 29.278-29.296h342.021c22.478-113.024 122.403-198.491 241.932-198.491 136.018 0 246.675 110.671 246.675 246.691-0.001 118.096-83.422 217.067-194.43 241.103zM189.505 643.87l275.546 189.039 272.815-188.946v-152.662c-129.652-3.274-234.743-107.090-240.124-236.216h-308.237v388.785zM744.181 56.591c-103.715 0-188.118 84.385-188.118 188.101 0 103.713 84.403 188.098 188.118 188.098 103.712 0 188.114-84.385 188.114-188.098 0-103.716-84.402-188.101-188.114-188.101zM731.628 292.303c2.937 2.648 6.952 4.050 11.573 4.295 0.714-0.052 1.432-0.087 2.159-0.087 0.524 0 1.045 0.015 1.562 0.042 8.316-0.599 18.022-4.464 26.832-11.21 12.849-9.838 31.238-7.401 41.093 5.447 9.856 12.808 7.42 31.234-5.43 41.075-11.034 8.449-22.84 14.608-34.782 18.476v2.163c0 16.192-13.065 29.296-29.275 29.296s-29.277-13.106-29.277-29.296v-2.355c-8.681-3.243-16.741-8.035-23.816-14.429-20.342-18.53-28.171-43.918-20.934-67.896 8.192-27.021 33.203-46.324 67.042-51.865 0.49-0.1 0.986-0.188 1.486-0.263 13.587-2.014 20.014-7.719 21.048-11.060 0.628-2.125-1.809-5.284-4.246-7.515-2.957-2.673-7.021-4.082-11.701-4.309-0.674 0.046-1.353 0.078-2.038 0.078-0.467 0-0.93-0.014-1.392-0.035-8.335 0.557-18.089 4.413-26.925 11.204-12.85 9.858-31.236 7.421-41.061-5.428-9.89-12.83-7.456-31.218 5.393-41.056 11-8.451 22.787-14.603 34.707-18.475v-2.22c0-16.192 13.067-29.298 29.277-29.298s29.278 13.105 29.278 29.298v2.377c8.67 3.245 16.716 8.049 23.782 14.445 20.418 18.498 28.28 43.918 20.97 67.917-8.208 27.209-33.51 46.57-67.677 51.915-0.235 0.041-0.468 0.089-0.705 0.125-13.66 2.064-20.123 7.791-21.116 11.146-0.664 2.126 1.773 5.321 4.173 7.498z" />
<glyph unicode="&#xe299;" glyph-name="invest-large" d="M875.629 661.484h-724.285c-6.892 0-12.494-5.587-12.494-12.479v-334.153c-1.042-2.811-1.056-5.922 0-8.74v-70.98c0-6.907 5.601-12.494 12.494-12.494h724.285c6.893 0 12.494 5.587 12.494 12.494v413.873c0 6.892-5.602 12.479-12.494 12.479zM296.219 247.609h-132.383v58.308l132.383 125.657v-183.965zM296.219 465.999l-132.383-125.657v296.169h132.383v-170.512zM503.156 247.609h-181.949v200.485l181.949-16.561v-183.924zM503.156 456.613l-181.949 16.568v163.33h181.949v-179.898zM710.094 247.609h-181.949v189.23l114.725 106.027 67.224-88.568v-206.689zM710.094 495.615l-55.637 73.307c-2.125 2.819-5.336 4.581-8.844 4.896-3.619 0.314-6.986-0.879-9.584-3.273l-107.884-99.705v165.671h181.949v-140.896zM863.137 247.609h-128.057v202.785l74.146 67.216 53.91 53.282v-323.283zM863.137 605.885c-0.391-0.302-0.772-0.622-1.134-0.976l-69.942-69.157-56.981-51.652v152.411h128.057v-30.626zM512.016 960c-282.327 0-512.016-229.675-512.016-512s229.689-512 512.016-512c282.308 0 511.984 229.675 511.984 512s-229.676 512-511.984 512zM512.015-39.012c-268.556 0-487.029 218.471-487.029 487.012s218.473 487.013 487.030 487.013c268.541 0 486.995-218.472 486.995-487.013s-218.455-487.012-486.996-487.012z" />
<glyph unicode="&#xe300;" glyph-name="invest-medium" d="M1006.964 747.559h-988.825c-9.408 0-17.057-7.615-17.057-17.035v-456.164c-1.42-3.833-1.44-8.080 0-11.928v-96.946c0-9.42 7.649-17.045 17.057-17.045h988.825c9.431 0 17.036 7.625 17.036 17.045v565.038c0 9.42-7.605 17.035-17.036 17.035zM989.927 671.684c-0.541-0.419-1.069-0.862-1.568-1.355l-95.489-94.417-77.812-70.507v208.072h174.87v-41.793zM532.562 713.477h248.425v-192.409l-75.984 100.139c-2.901 3.835-7.283 6.263-12.094 6.682-4.727 0.44-9.539-1.201-13.062-4.458l-147.285-136.112v226.158zM498.448 467.873l-248.426 22.614v222.99h248.426v-245.604zM250.022 456.247l248.426-22.616v-251.107h-248.426v273.723zM532.562 440.885l156.651 144.748 91.773-120.937v-282.173h-248.424v258.362zM215.952 713.477v-232.732l-180.756-171.585v404.317h180.756zM35.196 262.123l180.756 171.594v-251.193h-180.756v79.599zM815.057 182.523v276.856l101.25 91.785 73.62 72.764v-441.404h-174.87z" />
<glyph unicode="&#xe301;" glyph-name="invest-small" d="M929.659 821.483h-835.318c-17.901 0-32.341-14.479-32.341-32.344v-682.239c0-17.906 14.44-32.384 32.341-32.384h835.318c17.901 0 32.341 14.478 32.341 32.384v682.239c0 17.865-14.443 32.344-32.341 32.344zM897.312 756.755v-51.856c-0.69-0.681-1.361-1.393-2-2.146l-222.609-263.32-254.759 200.020c-6.889 5.423-15.779 7.79-24.513 6.566-8.727-1.225-16.596-5.994-21.739-13.135l-245.003-340.61v464.48h770.623zM126.689 139.245v43.752c1.903 1.637 3.647 3.516 5.177 5.639l272.66 379.032 252.755-198.386c13.747-10.811 33.488-8.731 44.708 4.523l195.323 231.036v-465.596h-770.623z" />
<glyph unicode="&#xe302;" glyph-name="mortgage-large" d="M512.016 960c-282.327 0-512.016-229.675-512.016-512s229.689-512 512.016-512c282.308 0 511.984 229.675 511.984 512s-229.676 512-511.984 512zM512.015-39.012c-268.556 0-487.027 218.471-487.027 487.012s218.471 487.013 487.028 487.013c268.541 0 486.995-218.472 486.995-487.013s-218.455-487.012-486.996-487.012zM817.205 517.362l-125.822 86.55 0.598 152.628c0 3.321-1.306 6.499-3.651 8.843-2.344 2.361-5.521 3.683-8.826 3.683l-269.128 0.188c-2.6 0.116-5.18-0.583-7.372-2.023-0.078-0.051-0.154-0.105-0.231-0.158-0.227-0.156-0.448-0.32-0.665-0.492-0.091-0.072-0.183-0.143-0.272-0.218-0.28-0.235-0.555-0.48-0.816-0.743l-129.54-129.17c-0.050-0.050-0.092-0.105-0.141-0.155-0.208-0.214-0.408-0.433-0.598-0.659-0.080-0.095-0.154-0.192-0.231-0.289-0.165-0.208-0.322-0.419-0.472-0.635-0.063-0.092-0.127-0.182-0.188-0.275-0.187-0.286-0.364-0.577-0.526-0.875-0.013-0.023-0.028-0.046-0.041-0.069-0.172-0.322-0.327-0.652-0.469-0.986-0.044-0.104-0.083-0.208-0.125-0.313-0.093-0.235-0.18-0.473-0.258-0.713-0.042-0.126-0.083-0.253-0.121-0.381-0.073-0.252-0.137-0.507-0.195-0.764-0.038-0.168-0.073-0.336-0.104-0.506-0.046-0.256-0.088-0.513-0.119-0.771-0.021-0.179-0.034-0.359-0.048-0.539-0.013-0.17-0.022-0.34-0.028-0.511-0.004-0.125-0.020-0.247-0.020-0.372l-0.99-434.298c0-3.336 1.304-6.515 3.65-8.844 2.328-2.363 5.506-3.682 8.826-3.682l398.914-0.521c6.877 0 12.479 5.57 12.492 12.447l0.295 119.82 70.768-0.31c0.016 0 0.031 0 0.047 0 3.289 0 6.453 1.306 8.797 3.616 2.344 2.331 3.682 5.494 3.697 8.812l0.834 191.304 27.916-19.203c2.168-1.495 4.625-2.203 7.064-2.203 3.98 0 7.883 1.889 10.307 5.413 3.903 5.683 2.472 13.456-3.208 17.374zM397.271 726.613l-0.188-86.797-86.656 0.188 86.844 86.609zM665.734 205.284l-373.922 0.484 0.944 409.312 116.758-0.284c0.016 0 0.016 0 0.033 0 3.303 0 6.467 1.322 8.811 3.65 2.346 2.331 3.666 5.507 3.682 8.812l0.256 117.022 244.684-0.184-0.305-123.188-43.314 29.795c-0.209 0.144-0.424 0.272-0.639 0.401l-0.998 0.698c-4.264 2.974-9.881 3.008-14.178 0.098l-182.199-123.769-74.177-0.069c-6.893 0-12.479-5.603-12.479-12.494 0.015-6.893 5.601-12.494 12.494-12.494 0 0 0 0 0.016 0l100.279 0.126-0.169-38.176-99.687-0.313c-6.891 0-12.461-5.599-12.461-12.493 0.013-6.893 5.599-12.463 12.492-12.463 0 0 0.018 0 0.031 0l99.515 0.298-0.169-38.443-98.903-0.409c-6.893-0.015-12.479-5.617-12.463-12.525 0.033-6.877 5.619-12.444 12.494-12.444 0.016 0 0.016 0 0.031-0.006l98.73 0.399-0.223-50.526c-0.019-3.32 1.291-6.499 3.616-8.843 2.349-2.344 5.511-3.68 8.828-3.698l202.861-0.887-0.269-107.387zM594.529 339.184l0.065 52.090 38.617-0.056-0.049-52.069-38.633 0.035zM749.372 337.285l-91.229 0.398 0.067 66.005c0.005 6.908-5.583 12.497-12.491 12.5l-63.59 0.064c-6.412 0.499-12.481-5.576-12.504-12.472l-0.079-65.71-93.817 0.41 0.868 194.191 24.481 16.644 113.533 76.995 135.61-94.804-0.849-194.221z" />
<glyph unicode="&#xe304;" glyph-name="mortgage-medium" d="M928.38 513.045l-191.942 132.041 0.567 233.469c0.022 5.072-1.972 9.929-5.557 13.524-3.579 3.583-8.438 5.603-13.485 5.603l-411.62 0.312c-0.019 0-0.038 0-0.056 0h-0.408c-0.047 0-0.093-0.006-0.14-0.007-0.544-0.004-1.087-0.030-1.627-0.080-0.061-0.006-0.121-0.009-0.181-0.016-1.187-0.121-2.358-0.354-3.502-0.694-0.075-0.022-0.148-0.046-0.222-0.069-0.501-0.155-0.995-0.331-1.482-0.528-0.069-0.028-0.139-0.054-0.208-0.082-1.061-0.444-2.083-0.986-3.057-1.624-0.124-0.081-0.245-0.166-0.367-0.25-0.352-0.243-0.696-0.498-1.034-0.766-0.128-0.102-0.257-0.201-0.383-0.306-0.434-0.363-0.857-0.74-1.262-1.146l-197.939-197.396c-0.435-0.432-0.837-0.887-1.224-1.352-0.034-0.041-0.066-0.083-0.099-0.124-0.372-0.455-0.719-0.923-1.044-1.404-0.008-0.012-0.016-0.023-0.023-0.035-1.044-1.558-1.842-3.245-2.382-5.008-0.001-0.005-0.003-0.010-0.005-0.016-0.354-1.157-0.598-2.342-0.727-3.544-0.011-0.097-0.017-0.194-0.026-0.291-0.044-0.476-0.069-0.953-0.077-1.432-0.002-0.087-0.014-0.173-0.014-0.261l-1.49-663.629c-0.027-5.098 1.969-9.931 5.552-13.514 3.583-3.605 8.44-5.627 13.491-5.627l609.565-0.793c10.506 0 19.066 8.511 19.066 19.021l0.494 183.094 108.087-0.473c0.050 0 0.075 0 0.099 0 5.024 0 9.858 1.971 13.411 5.53 3.609 3.562 5.629 8.395 5.677 13.465l1.252 292.335 42.68-29.355c3.295-2.284 7.066-3.366 10.796-3.366 6.062 0 12.049 2.886 15.752 8.272 5.96 8.681 3.775 20.559-4.906 26.522zM286.689 832.819l-0.289-132.655-132.399 0.336 132.688 132.319zM696.925 36.186l-571.38 0.744 1.438 625.461 178.413-0.423c0.026 0 0.049 0 0.049 0 5.050 0 9.88 1.996 13.463 5.554 3.584 3.571 5.604 8.428 5.628 13.502l0.393 178.79 373.895-0.28-0.497-188.231-66.158 45.512c-0.162 0.111-0.333 0.2-0.497 0.305l-2.005 1.402c-6.492 4.557-15.123 4.581-21.664 0.145l-278.453-189.151-113.314-0.124c-10.529 0-19.066-8.561-19.043-19.091 0-10.528 8.537-19.065 19.069-19.065 0.024 0 0.024 0 0.023 0l153.259 0.186-0.259-58.335-152.375-0.469c-10.532-0.027-19.043-8.585-18.995-19.143 0-10.509 8.56-19.021 19.066-19.021 0.026 0 0.026 0 0.076 0.001l152.059 0.471-0.261-58.734-151.174-0.621c-10.533-0.050-19.044-8.61-18.995-19.142 0.023-10.533 8.559-19.021 19.066-19.021 0.023 0 0.049 0 0.069 0.003l150.865 0.595-0.342-77.204c-0.044-5.074 1.951-9.932 5.531-13.514 3.561-3.583 8.395-5.627 13.468-5.65l310.005-1.356-0.423-164.096zM588.146 320.34l59.014 0.021 0.054-79.571-59.033-0.042-0.035 79.592zM824.721 237.898l-139.359 0.602-0.068 100.975c0.013 10.559-8.561 19.084-19.092 19.072l-97.15-0.062c-0.090-0.001-0.168-0.005-0.235-0.005-10.435-0.133-18.84-8.63-18.854-19.091l0.069-100.307-143.453 0.619 1.299 296.763 12.325 8.379 198.616 134.676 207.201-144.836-1.299-296.785z" />
<glyph unicode="&#xe305;" glyph-name="mortgage-small" d="M837.975 897.981h-437.986c-2.965 0.091-5.917-0.313-8.746-1.172-0.031-0.009-0.062-0.020-0.093-0.029-0.781-0.241-1.552-0.516-2.311-0.826-0.054-0.022-0.109-0.042-0.163-0.065-0.359-0.149-0.714-0.308-1.067-0.473-0.135-0.063-0.269-0.13-0.403-0.196-0.542-0.264-1.075-0.547-1.6-0.848-0.199-0.114-0.399-0.226-0.596-0.345-0.263-0.16-0.522-0.325-0.781-0.494-0.273-0.178-0.542-0.365-0.809-0.553-0.262-0.185-0.521-0.372-0.777-0.566-0.354-0.269-0.7-0.546-1.041-0.832-0.158-0.133-0.314-0.268-0.47-0.404-0.423-0.372-0.839-0.753-1.24-1.152-0.015-0.015-0.030-0.027-0.044-0.042l-213.099-213.12c-0.010-0.010-0.020-0.021-0.030-0.032-0.448-0.446-0.873-0.911-1.285-1.384-0.051-0.059-0.103-0.118-0.153-0.177-0.84-0.981-1.604-2.016-2.289-3.098-0.032-0.050-0.063-0.099-0.094-0.149-0.651-1.042-1.228-2.125-1.73-3.243-0.064-0.141-0.127-0.282-0.188-0.424-0.207-0.482-0.403-0.968-0.582-1.461-0.074-0.203-0.139-0.408-0.208-0.613-0.115-0.342-0.225-0.686-0.326-1.033-0.083-0.281-0.161-0.563-0.234-0.847-0.056-0.219-0.106-0.439-0.157-0.66-0.147-0.634-0.271-1.272-0.374-1.916-0.014-0.092-0.031-0.185-0.044-0.277-0.062-0.417-0.113-0.835-0.155-1.255-0.001-0.015-0.002-0.030-0.004-0.046-0.113-1.147-0.164-2.302-0.13-3.459v-631.512c0-15.067 12.177-27.277 27.281-27.277h651.93c15.099 0 27.275 12.21 27.273 27.277v845.39c0 15.101-12.174 27.313-27.275 27.313zM371.832 804.776v-119.897h-119.877l119.877 119.897zM810.696 52.591h-597.374v577.697h185.822c15.065 0 27.313 12.212 27.312 27.297v185.804h384.239v-790.798zM498.593 591.316l-200.339-135.26c-12.485-8.463-15.79-25.421-7.326-37.905 5.228-7.811 13.864-12.009 22.634-12.009 3.080 0 6.191 0.541 9.188 1.616l-2.31-181.608c-0.102-7.24 2.685-14.224 7.741-19.4 5.055-5.194 11.939-8.153 19.195-8.238l325.827-4.008c0.103 0 0.242 0 0.345 0 7.12 0 13.967 2.77 19.090 7.755 5.162 5.060 8.121 11.974 8.186 19.212l2.155 182.020c3.59-1.627 7.412-2.438 11.191-2.438 8.533 0 16.964 3.99 22.298 11.487 8.738 12.282 5.845 29.326-6.469 38.062l-195.938 139.248c-2.233 1.591-4.627 2.791-7.102 3.624-3.961 1.82-8.252 2.65-12.521 2.481-5.449 0.118-10.987-1.374-15.845-4.639zM646.58 249.441l-271.239 3.317 2.441 190.983 137.288 91.811 133.746-95.078-2.236-191.033z" />
<glyph unicode="&#xe307;" glyph-name="reloadable-medium" d="M189.838 551.275h-37.498c-29.987 0-54.347-24.362-54.347-54.324 0-30.008 24.36-54.369 54.347-54.369h37.498c30.006 0 54.368 24.361 54.368 54.369 0 29.963-24.362 54.324-54.368 54.324zM189.838 478.692h-37.498c-10.042 0-18.239 8.196-18.239 18.26 0 10.017 8.197 18.214 18.239 18.214h37.498c10.063 0 18.258-8.196 18.258-18.214 0-10.066-8.195-18.26-18.258-18.26zM852.74 523.245v186.63c0 49.975-40.66 90.638-90.661 90.638h-671.441c-49.975 0-90.638-40.663-90.638-90.638v-373.847c0-49.997 40.663-90.661 90.638-90.661h511.336c28.073-86.861 109.708-149.879 205.799-149.879 119.237 0 216.227 97.013 216.227 216.225 0 103.819-73.537 190.778-171.26 211.532zM816.631 682.097v-30.394h-780.521v30.394h780.521zM90.638 764.38h671.441c27.228 0 49.86-20.038 53.906-46.128h-779.23c4.042 26.090 26.658 46.128 53.883 46.128zM90.638 281.501c-30.075 0-54.528 24.472-54.528 54.528v279.542h780.521v-87.806c-2.939 0.119-5.89 0.196-8.857 0.196-119.233 0-216.227-97.014-216.227-216.248 0-10.252 0.734-20.336 2.121-30.212h-503.030zM807.773 131.619c-99.312 0-180.114 80.782-180.114 180.094s80.802 180.115 180.114 180.115c99.315 0 180.117-80.803 180.114-180.115 0.001-99.314-80.801-180.094-180.114-180.094zM905.405 333.298h-79.575v79.55c0 9.973-8.059 18.076-18.057 18.076-9.994 0-18.057-8.101-18.057-18.076v-79.55h-79.568c-9.996 0-18.058-8.103-18.058-18.079 0-9.973 8.062-18.078 18.058-18.078h79.568v-79.55c0-9.994 8.065-18.055 18.057-18.055 9.998 0 18.057 8.061 18.057 18.055v79.55h79.575c9.991 0 18.055 8.105 18.055 18.078 0 9.975-8.064 18.079-18.055 18.079z" />
<glyph unicode="&#xe308;" glyph-name="reloadable-small" d="M823.25 529.344v292.762c0 16.104-13.017 29.174-29.157 29.174h-752.936c-16.141 0-29.157-13.069-29.157-29.174v-536.395c0-16.141 13.016-29.19 29.157-29.19h481.938c16.542-119.505 119.325-211.801 243.28-211.801 135.439 0 245.625 110.183 245.625 245.661 0 115.85-80.645 213.232-188.75 238.963zM764.94 792.935v-103.583h-694.628v103.583h694.628zM70.312 614.058h694.628v-78.072c-126.53-0.729-230.688-97.615-242.971-221.121h-451.657v299.193zM766.375 103.062c-103.269 0-187.315 84.026-187.315 187.316 0 103.257 84.047 187.284 187.315 187.284 103.27 0 187.315-84.027 187.317-187.284 0-103.289-84.047-187.316-187.317-187.316zM866.265 319.534h-70.737v70.736c0 16.122-13.012 29.155-29.152 29.155-16.135 0-29.151-13.033-29.151-29.155v-70.735h-70.737c-16.139 0-29.19-13.052-29.19-29.154 0-16.138 13.052-29.189 29.19-29.189h70.736v-70.735c0-16.104 13.017-29.173 29.152-29.173 16.14 0 29.151 13.068 29.151 29.173v70.733h70.737c16.14 0 29.19 13.051 29.19 29.189 0.001 16.103-13.050 29.155-29.189 29.155z" />
<glyph unicode="&#xe309;" glyph-name="savings-large" d="M512.008 960.008c-282.315 0-512.008-229.678-512.008-512.008s229.693-512.008 512.008-512.008c282.314 0 511.992 229.678 511.992 512.008s-229.677 512.008-511.992 512.008zM512.008-39.020c-268.56 0-487.035 218.475-487.035 487.020s218.474 487.020 487.035 487.020c268.545 0 487.021-218.475 487.021-487.020s-218.476-487.020-487.021-487.020zM857.562 491.761h-34.205v66.828c0 32.604-24.282 60.519-56.478 64.956-0.567 0.095-1.133 0.126-1.684 0.126l-40.74 0.11v90.968c0 1.071-0.125 2.141-0.408 3.179-7.586 28.828-33.708 48.97-63.479 48.97-5.602 0-11.203-0.723-15.861-1.982l-377.751-73.486c-34.996-9.189-54.256-36.962-54.256-78.19l-0.346-325.713c0-50.137 26.781-74.493 81.855-74.493l463.449-0.283c36.223 0 65.695 29.458 65.699 65.649v78.018h34.205c37.311 0 67.68 30.354 67.68 67.664 0 37.325-30.369 67.679-67.68 67.679zM272.51 667.104l377.736 73.485c3.383 0.882 6.859 1.322 10.322 1.322 17.939 0 33.736-11.802 38.915-28.89v-19.491l-427.509-69.104c-0.939-0.151-1.832-0.413-2.679-0.753h-31.115c2.498 23.762 13.979 38.056 34.33 43.431zM699.483 668.217v-44.544h-275.68l275.68 44.544zM798.381 278.4c0-22.426-18.27-40.68-40.723-40.68l-463.432 0.301c-47.381 0-56.916 18.947-56.916 49.475l0.331 311.188h516.713c0.263 0 0.52 0.023 0.778 0.039l9.104-0.024c19.513-3.068 34.146-20.188 34.146-40.109v-66.829h-42.392c-37.326 0-67.68-30.354-67.68-67.679 0-37.31 30.354-67.664 67.68-67.664h42.391v-78.018zM857.562 381.391h-101.572c-23.541 0-42.707 19.15-42.707 42.691 0 23.54 19.166 42.706 42.707 42.706h101.572c23.541 0 42.688-19.166 42.688-42.706s-19.146-42.691-42.688-42.691zM854.634 443.138c-10.53 0-19.057-8.529-19.057-19.056 0-10.512 8.526-19.041 19.057-19.041s19.058 8.529 19.058 19.041c-0.001 10.526-8.528 19.056-19.058 19.056z" />
<glyph unicode="&#xe310;" glyph-name="savings-medium2" d="M926.809 450.803h-49.139v95.971c0 46.832-34.877 86.95-81.145 93.324-0.791 0.113-1.582 0.158-2.396 0.158l-58.518 0.185v130.643c0 1.536-0.203 3.073-0.588 4.565-10.918 41.408-48.393 70.34-91.203 70.34-8.002 0-16.047-1.040-22.783-2.825l-542.582-105.578c-50.268-13.199-77.957-53.070-77.957-112.312l-0.498-467.856c0-71.99 38.471-106.98 117.628-106.977l665.675-0.433c52.031 0 94.367 42.312 94.367 94.322v112.043h49.139c53.613 0 97.191 43.624 97.191 97.215s-43.578 97.215-97.191 97.215zM699.743 640.26h-396.053l396.053 64.006v-64.006zM86.434 702.644l542.582 105.555c4.862 1.266 9.858 1.921 14.808 1.921 25.791 0 48.461-16.952 55.92-41.498v-28.010l-614.077-99.245c-1.371-0.222-2.671-0.606-3.905-1.107h-44.62c3.58 34.136 20.039 54.683 49.292 62.384zM841.799 144.334c0-32.209-26.244-58.429-58.473-58.429l-665.699 0.404c-68.080 0-81.732 27.217-81.732 71.087l0.474 446.993h742.209c0.225 0 0.443 0.025 0.666 0.034l13.508-0.037c28.049-4.406 49.047-28.975 49.047-57.612v-95.972h-60.914c-53.589 0-97.19-43.623-97.19-97.215s43.599-97.215 97.19-97.215h60.914v-112.038zM926.809 292.267h-145.924c-33.812 0-61.322 27.485-61.322 61.321 0 33.814 27.511 61.321 61.322 61.321h145.924c33.817 0 61.347-27.507 61.347-61.321-0.001-33.836-27.533-61.321-61.347-61.321zM922.604 380.96c-15.121 0-27.351-12.272-27.351-27.372 0-15.121 12.229-27.372 27.351-27.372 15.1 0 27.35 12.251 27.35 27.372-0.001 15.1-12.251 27.372-27.35 27.372z" />
<glyph unicode="&#xe311;" glyph-name="savings-small2" d="M868.89 652.995c-1.425 0.223-2.891 0.326-4.32 0.326l-43.599 0.124v115.13c0 2.774-0.328 5.525-1.061 8.198-12.396 47.512-55.381 80.689-104.485 80.689-9.218 0-18.474-1.204-25.448-3.080l-539.23-104.956c-56.934-14.927-88.254-59.502-88.254-125.51l-0.491-464.252c0-80.099 44.208-120.719 131.24-120.719l660.563-0.406c59.662 0 108.195 48.511 108.195 108.134v399.328c0 53.69-40.050 99.734-93.11 106.994zM165.099 686.355l539.273 104.957c3.632 0.916 7.344 1.426 11.055 1.426 18.431 0 34.746-11.727 40.864-28.896v-110.52h-625.234c6.861 22.524 21.751 29.763 34.042 33.033zM897.236 146.674c0-23.937-19.496-43.413-43.394-43.413l-660.562 0.408c-61.785 0-66.516 23.204-66.516 55.954l0.451 428.976h721.856c0.418 0 0.833 0.016 1.247 0.031l11.601-0.032c20.268-3.689 35.316-21.696 35.316-42.597v-399.327z" />
<glyph unicode="&#xe600;" glyph-name="exclamation_soft" d="M512 959.98c-282.301 0-512-229.68-512-511.98s229.699-511.98 512-511.98c282.302 0 512 229.682 512 511.98 0 282.3-229.698 511.98-512 511.98zM512-1.869c-248.057 0-449.849 201.814-449.849 449.869s201.792 449.868 449.849 449.868c248.054 0 449.849-201.813 449.849-449.868s-201.795-449.869-449.849-449.869zM520.609 320.725c-49.939 0-90.487-40.548-90.487-90.408 0-50.058 40.547-90.604 90.487-90.604 50.057 0 90.524 40.547 90.524 90.604 0.002 49.86-40.467 90.408-90.524 90.408zM455.68 429.214c2.897-31.623 29.979-57.533 62.896-57.533 32.991 0 60.076 25.91 62.893 57.533l25.44 244.063v0.156c0 0.313 0.078 0.626 0.078 0.783 0 46.026-39.566 83.286-88.411 83.286-48.806 0-88.414-37.259-88.414-83.208 0-0.234 0.078-0.509 0.078-0.782l-0.078-0.353 25.518-243.945z" />
<glyph unicode="&#xe601;" glyph-name="flag" d="M878.033 933h-732.045c-17.337 0-33.445-8.913-42.649-23.614-9.205-14.68-10.21-33.066-2.636-48.682l120.395-248.41-120.15-240.833c-7.776-15.616-6.925-34.139 2.233-48.949 9.184-14.836 25.381-23.859 42.807-23.859h681.732v-285.317c0-27.793 22.521-50.335 50.313-50.335s50.312 22.542 50.312 50.335v869.33c0.001 27.792-22.521 50.334-50.312 50.334zM827.72 399.319h-600.39l94.883 190.189c6.971 13.984 7.059 30.382 0.245 44.414l-96.154 198.408h601.416v-433.011z" />
<glyph unicode="&#xe602;" glyph-name="downloadcheck" d="M927.848 882.305h-831.696c-18.883 0-34.152-15.271-34.152-34.155v-457.432c0-18.884 15.269-34.151 34.152-34.151h383.604v-137.994l-80.042 80.083c-12.588 12.59-32.975 12.59-45.563 0-12.59-12.549-12.59-32.976 0-45.564l135.069-135.152c6.052-6.052 14.213-9.46 22.782-9.46 8.567 0 16.731 3.408 22.782 9.46l135.108 135.15c12.591 12.59 12.591 32.978 0 45.564-12.59 12.59-32.977 12.59-45.563 0l-80.084-80.083v137.995h383.604c18.884 0 34.152 15.269 34.152 34.151v457.433c-0.001 18.884-15.271 34.155-34.153 34.155zM893.695 424.871h-763.388v389.127h763.389l-0.001-389.127zM204.582 640.674h614.917c18.885 0 34.155 15.27 34.155 34.152 0 18.884-15.271 34.154-34.155 34.154h-614.917c-18.884 0-34.152-15.271-34.152-34.154-0.001-18.882 15.268-34.152 34.152-34.152zM819.499 580.246h-229.040c-18.885 0-34.153-15.271-34.153-34.152 0-18.884 15.27-34.153 34.153-34.153h229.040c18.885 0 34.155 15.27 34.155 34.153 0 18.882-15.27 34.152-34.155 34.152zM761.51 78.184h-499.017c-17.787 0-32.245-14.455-32.245-32.244 0-17.787 14.458-32.243 32.245-32.243h499.017c17.786 0 32.242 14.456 32.242 32.243 0 17.789-14.456 32.244-32.242 32.244z" />
<glyph unicode="&#xe603;" glyph-name="gripperdown" d="M514.057 322.632l-481.999 157.949c-24.424 8-37.741 34.287-29.727 58.727 8.016 24.423 34.362 37.649 58.726 29.726l452.696-148.344 448.894 150.252c24.516 8.182 50.757-5.015 58.938-29.362 8.15-24.378-5-50.757-29.363-58.907l-478.165-160.041z" />
<glyph unicode="&#xe604;" glyph-name="feedback" d="M998.576 663.889c-16.294 38.546-39.611 73.162-69.305 102.885-29.713 29.742-64.322 53.1-102.871 69.422-39.949 16.916-82.375 25.493-126.098 25.493h-376.607c-43.608 0-85.999-8.576-125.992-25.488-38.586-16.317-73.208-39.623-102.936-69.301-29.665-29.688-52.98-64.315-69.299-102.919-16.899-39.978-25.468-82.367-25.468-125.987 0-43.626 8.554-85.983 25.423-125.895 16.293-38.546 39.61-73.162 69.303-102.887 29.712-29.742 64.323-53.1 102.871-69.422 39.951-16.917 82.376-25.494 126.098-25.494h56.574l193.035-170.886c6.733-5.962 15.306-9.101 24.009-9.101 4.271 0 8.577 0.758 12.711 2.308 12.554 4.708 21.479 15.966 23.198 29.263l19.198 148.418h47.884c43.722 0 86.147 8.577 126.099 25.494 38.548 16.322 73.158 39.68 102.871 69.422 29.691 29.726 53.010 64.341 69.304 102.887 16.869 39.91 25.424 82.269 25.424 125.895-0.002 43.626-8.557 85.983-25.426 125.893zM878.032 360.401c-47.462-47.512-110.581-73.678-177.729-73.678h-79.715c-18.204 0-33.579-13.514-35.914-31.566l-14.518-112.232-152.155 134.701c-6.622 5.862-15.16 9.099-24.004 9.099h-70.302c-67.148 0-130.267 26.166-177.729 73.678-47.422 47.473-73.54 110.543-73.54 177.593 0 33.879 6.646 66.78 19.753 97.788 12.67 29.974 30.778 56.865 53.79 79.895 23.075 23.037 49.971 41.144 79.942 53.818 31.019 13.117 63.918 19.768 97.783 19.768h376.608c67.148 0 130.268-26.166 177.729-73.676 47.424-47.473 73.541-110.543 73.541-177.593s-26.116-130.122-73.54-177.595zM626.492 562.721h-84.296v84.297c0 16.667-13.512 30.178-30.179 30.178s-30.178-13.511-30.178-30.178v-84.297h-84.334c-16.667 0-30.178-13.511-30.178-30.178s13.511-30.178 30.178-30.178h84.334v-84.336c0-16.667 13.511-30.18 30.178-30.18s30.179 13.513 30.179 30.18v84.336h84.296c16.667 0 30.178 13.511 30.178 30.178s-13.511 30.178-30.178 30.178z" />
<glyph unicode="&#xe605;" glyph-name="equal-housing-lender" d="M512.207 834.757l-450.207-298.48v-122.483h61.241v-352.551h779.587v354.207h59.172v119.172l-449.793 300.135zM806.827 178.759h-589.241v304.553l294.62 196.965 294.621-201.931v-299.587zM356.414 498.208h311.172v-109.241h-311.172v109.241zM356.414 347.588h311.172v-109.242h-311.172v109.242z" />
<glyph unicode="&#xe611;" glyph-name="checking-small" d="M929.658 710.075h-835.312c-17.905 0-32.346-14.478-32.346-32.385v-459.421c0-17.863 14.441-32.344 32.346-32.344h835.311c17.905 0 32.343 14.48 32.344 32.345v459.42c0 17.906-14.439 32.385-32.343 32.385zM897.314 250.654h-770.626v394.694h770.626v-394.694zM203.205 439.945h617.635c17.905 0 32.343 14.479 32.344 32.342 0 17.907-14.438 32.386-32.344 32.386h-617.635c-17.863 0-32.383-14.479-32.383-32.386 0-17.863 14.519-32.342 32.383-32.342zM820.84 375.376h-230.040c-17.905 0-32.343-14.477-32.343-32.363 0-17.884 14.438-32.362 32.343-32.362h230.040c17.905 0 32.343 14.479 32.343 32.362s-14.438 32.363-32.343 32.363z" />
<glyph unicode="&#xe616;" glyph-name="confirmation" d="M511.951 959.988c-282.75 0-511.951-229.176-511.951-511.951 0-282.725 229.201-512.025 511.951-512.025s512.049 229.3 512.049 512.025c0 282.776-229.299 511.951-512.049 511.951zM485.852 85.847c-8.058-12.284-24.458-15.388-36.447-6.896l-270.958 191.922c-11.988 8.492-14.985 25.343-6.66 37.447l51.676 75.135c8.325 12.104 24.948 15.064 36.94 6.577l150.894-106.789c11.992-8.487 28.396-5.38 36.452 6.905l299.604 456.828c8.057 12.285 24.608 15.608 36.783 7.386l75.029-50.674c12.175-8.223 15.543-25.001 7.485-37.285l-380.798-580.556z" />
<glyph unicode="&#xe623;" glyph-name="searchx" d="M587.114 447.966l359.249 359.263c20.766 20.75 20.766 54.423 0 75.146-20.735 20.737-54.407 20.764-75.143 0l-359.255-359.263-359.249 359.263c-20.766 20.764-54.407 20.764-75.142 0-20.766-20.75-20.766-54.395 0-75.146l359.248-359.263-359.247-359.277c-20.766-20.737-20.766-54.382 0-75.146 10.383-10.382 23.891-15.49 37.625-15.49 13.516 0 27.188 5.108 37.516 15.49l359.28 359.277 359.279-359.277c10.321-10.382 24.001-15.49 37.517-15.49 13.672 0 27.22 5.108 37.657 15.49 20.734 20.765 20.734 54.409 0 75.146l-359.335 359.276z" />
<glyph unicode="&#xe629;" glyph-name="gripper" d="M344.448 43.729c0-30.794-24.964-55.758-55.758-55.758s-55.758 24.964-55.758 55.758c0 30.794 24.964 55.758 55.758 55.758s55.758-24.964 55.758-55.758zM344.448 238.88c0-30.794-24.964-55.758-55.758-55.758s-55.758 24.964-55.758 55.758c0 30.794 24.964 55.758 55.758 55.758s55.758-24.964 55.758-55.758zM344.448 447.971c0-30.794-24.964-55.758-55.758-55.758s-55.758 24.964-55.758 55.758c0 30.794 24.964 55.758 55.758 55.758s55.758-24.964 55.758-55.758zM344.448 650.092c0-30.794-24.964-55.758-55.758-55.758s-55.758 24.964-55.758 55.758c0 30.794 24.964 55.758 55.758 55.758s55.758-24.964 55.758-55.758zM344.448 852.213c0-30.794-24.964-55.758-55.758-55.758s-55.758 24.964-55.758 55.758c0 30.794 24.964 55.758 55.758 55.758s55.758-24.964 55.758-55.758zM567.479 43.729c0-30.794-24.964-55.758-55.758-55.758s-55.758 24.964-55.758 55.758c0 30.794 24.964 55.758 55.758 55.758s55.758-24.964 55.758-55.758zM567.479 238.88c0-30.794-24.964-55.758-55.758-55.758s-55.758 24.964-55.758 55.758c0 30.794 24.964 55.758 55.758 55.758s55.758-24.964 55.758-55.758zM567.479 447.971c0-30.794-24.964-55.758-55.758-55.758s-55.758 24.964-55.758 55.758c0 30.794 24.964 55.758 55.758 55.758s55.758-24.964 55.758-55.758zM567.479 650.092c0-30.794-24.964-55.758-55.758-55.758s-55.758 24.964-55.758 55.758c0 30.794 24.964 55.758 55.758 55.758s55.758-24.964 55.758-55.758zM567.479 852.213c0-30.794-24.964-55.758-55.758-55.758s-55.758 24.964-55.758 55.758c0 30.794 24.964 55.758 55.758 55.758s55.758-24.964 55.758-55.758zM790.509 43.729c0-30.794-24.964-55.758-55.758-55.758s-55.758 24.964-55.758 55.758c0 30.794 24.964 55.758 55.758 55.758s55.758-24.964 55.758-55.758zM790.509 238.88c0-30.794-24.964-55.758-55.758-55.758s-55.758 24.964-55.758 55.758c0 30.794 24.964 55.758 55.758 55.758s55.758-24.964 55.758-55.758zM790.509 447.971c0-30.794-24.964-55.758-55.758-55.758s-55.758 24.964-55.758 55.758c0 30.794 24.964 55.758 55.758 55.758s55.758-24.964 55.758-55.758zM790.509 650.092c0-30.794-24.964-55.758-55.758-55.758s-55.758 24.964-55.758 55.758c0 30.794 24.964 55.758 55.758 55.758s55.758-24.964 55.758-55.758zM790.509 852.213c0-30.794-24.964-55.758-55.758-55.758s-55.758 24.964-55.758 55.758c0 30.794 24.964 55.758 55.758 55.758s55.758-24.964 55.758-55.758z" />
<glyph unicode="&#xe62a;" glyph-name="angledown" d="M512 177.998l-450 540.004h900z" />
<glyph unicode="&#xe62b;" glyph-name="info-color" d="M512 960c-282.617 0-512-229.461-512-512 0-282.695 229.383-512 512-512 282.613 0 512 229.305 512 512 0 282.539-229.387 512-512 512zM592.615 113.074c0-40.461-38.307-73.535-78.771-73.535-40.461 0-78.766 33.074-78.766 73.535v347.465c0 40.305 38.305 73 78.766 73 40.465 0 78.77-32.695 78.771-73v-347.465zM588.922 649.074c-20.383-21-47.844-32.305-76.922-32.305-29.539 0-56.92 11.305-77.691 32.305-20.156 20.848-31.77 48.157-31.77 77.77 0 28.847 11.305 56.617 31.77 77.23 41 41.465 113.535 41.465 154.613-0.23 42.769-42.383 42.769-112 0-154.77z" />
<glyph unicode="&#xe62d;" glyph-name="instagram" d="M857.518 518.23h-78.219c5.697-22.123 9.062-45.237 9.062-69.135 0-152.703-123.759-276.462-276.431-276.462s-276.438 123.759-276.438 276.462c0 23.897 3.38 47.012 9.077 69.135h-78.223v-380.151c0-19.054 15.479-34.525 34.595-34.525h621.983c19.115 0 34.595 15.472 34.595 34.525v380.151zM857.518 760.105c0 19.077-15.479 34.552-34.595 34.552h-103.644c-19.092 0-34.557-15.476-34.557-34.552v-103.687c0-19.072 15.465-34.552 34.557-34.552h103.644c19.115 0 34.595 15.479 34.595 34.552v103.687zM511.929 621.867c-95.435 0-172.786-77.34-172.786-172.771 0-95.419 77.351-172.795 172.786-172.795 95.427 0 172.793 77.376 172.793 172.795 0.001 95.431-77.366 172.771-172.793 172.771zM857.518-0.145h-691.173c-57.237 0-103.644 46.416-103.644 103.698v691.104c0 57.248 46.407 103.647 103.644 103.647h691.173c57.244 0 103.645-46.399 103.645-103.647v-691.104c-0.001-57.282-46.401-103.698-103.645-103.698z" />
<glyph unicode="&#xe630;" glyph-name="info-i" d="M588.648 811.921c-40.786 41.4-112.891 41.4-153.528 0.229-20.314-20.47-31.619-48.043-31.619-76.686 0-29.407 11.61-56.522 31.619-77.22 20.623-20.853 47.816-32.083 77.148-32.083 28.868 0 56.063 11.23 76.379 32.083 42.468 42.467 42.468 111.592 0.001 153.677zM514.103 543.521c-40.178 0-78.218-32.463-78.218-72.486v-345.013c0-40.176 38.040-73.021 78.218-73.021 40.173 0 78.213 32.846 78.213 73.021v345.013c-0.001 40.022-38.041 72.486-78.213 72.486z" />
<glyph unicode="&#xe634;" glyph-name="more" d="M113.227 561.231c-62.539 0-113.227-50.693-113.227-113.25 0-62.52 50.688-113.216 113.227-113.216s113.234 50.694 113.234 113.216c0 62.557-50.695 113.25-113.234 113.25zM512 561.23c-62.539 0-113.234-50.692-113.234-113.25 0-62.521 50.695-113.215 113.234-113.215 62.534 0 113.227 50.694 113.227 113.216 0 62.557-50.696 113.249-113.227 113.249zM910.765 561.231c-62.538 0-113.231-50.693-113.231-113.25 0-62.521 50.693-113.216 113.232-113.216s113.234 50.695 113.234 113.216c0 62.557-50.696 113.25-113.235 113.25z" />
<glyph unicode="&#xe635;" glyph-name="angleleft" d="M241.998 448l540.004 450v-900z" />
<glyph unicode="&#xe638;" glyph-name="play" d="M845.021 498.386l-213.075 124.42c-47.47 27.675-125.31 73.075-172.989 100.831l-220.982 124.313c-47.47 27.806-94.153 5.499-94.153-49.696v-700.597c0-54.956 46.684-77.421 94.153-49.67l217.002 124.396c47.758 27.676 127.512 73.052 175.006 100.777l214.044 124.397c47.574 27.753 48.49 73.049 0.994 100.829z" />
<glyph unicode="&#xe63b;" glyph-name="refresh" d="M1012.591 890.689c0 28.699-23.271 51.918-51.917 51.918-28.7 0-51.924-23.246-51.924-51.918l0.029-105.672c-7.578 8.648-15.389 17.012-23.402 25.004-96.691 96.714-225.274 149.979-362.021 149.979-136.773 0-265.331-53.265-362.022-149.955-96.713-96.665-150.002-225.221-149.979-362.020 0.024-136.72 53.266-265.305 149.981-362.048 96.666-96.687 225.225-149.929 361.995-149.977 0.025 0 0 0 0.025 0 136.746 0 265.328 53.29 361.971 149.977 20.281 20.283 20.281 53.189 0 73.421-20.281 20.281-53.137 20.281-73.419 0-77.069-77.070-179.54-119.56-288.552-119.56h-0.024c-109.038 0-211.508 42.488-288.578 119.56-77.095 77.12-119.559 179.64-119.559 288.652 0 109.014 42.44 211.486 119.559 288.553 77.096 77.095 179.567 119.559 288.602 119.559 109.012 0 211.533-42.464 288.653-119.606 9.67-9.635 18.963-19.928 27.796-30.728h-115.916c-28.7 0-51.921-23.248-51.921-51.92s23.221-51.919 51.921-51.919h236.834c13.79 0 26.975 5.476 36.708 15.21 9.735 9.737 15.214 22.943 15.214 36.708l-0.054 236.782z" />
<glyph unicode="&#xe644;" glyph-name="repeat-large" d="M1008.41 404.584c-16.186 10.82-38.049 6.453-48.824-9.645l-27.762-41.419c-36.054 101.817-133.038 175.079-247.053 175.079-144.612 0-262.241-117.652-262.241-262.264s117.628-262.24 262.241-262.24c83.017 0.043 159.38 38.114 209.448 104.435 11.707 15.521 8.646 37.584-6.875 49.312-15.564 11.752-37.605 8.604-49.268-6.873-36.676-48.582-92.595-76.453-153.306-76.498-105.81 0-191.864 86.076-191.864 191.864 0 105.81 86.055 191.886 191.864 191.886 80.843 0 149.847-50.422 178.007-121.353l-44.879 32.062c-15.787 11.375-37.828 7.582-49.092-8.159-11.308-15.832-7.626-37.805 8.203-49.092l113.527-81.109c5.986-4.301 13.172-6.562 20.443-6.562 2.086 0 4.213 0.176 6.298 0.553 9.355 1.709 17.648 7.141 22.926 15.035l77.828 116.143c10.823 16.161 6.522 38.025-9.621 48.845zM329.293 256.157h-258.917v346.365h566.19c2.219-17.338 16.453-30.953 34.369-30.953 19.424 0 35.211 15.744 35.211 35.189v249.958c0 19.445-15.787 35.189-35.211 35.189h-635.746c-19.447 0.001-35.189-15.743-35.189-35.189v-635.749c0-19.444 15.742-35.187 35.189-35.187h294.104c19.445 0 35.189 15.742 35.189 35.187 0 19.448-15.744 35.19-35.189 35.19zM635.725 821.527v-148.626h-565.349v148.626h565.349z" />
<glyph unicode="&#xe645;" glyph-name="repeat-small" d="M954.337 417.125c-18.388 12.26-43.057 7.362-55.315-10.927l-15.071-22.457c-37.080 84.708-121.486 144.169-219.707 144.169-132.288 0-239.956-107.644-239.956-239.979 0-132.312 107.667-239.93 240.004-239.93 75.915 0.051 145.802 34.893 191.571 95.585 13.265 17.561 9.796 42.579-7.787 55.844-17.637 13.312-42.555 9.747-55.819-7.812-30.646-40.545-77.322-63.832-128.014-63.883-88.326 0-160.171 71.872-160.171 160.196 0 88.35 71.845 160.245 160.171 160.245 54.358 0 102.34-27.382 131.33-68.958l-8.895 6.355c-17.884 12.888-42.805 8.591-55.616-9.244-12.812-17.911-8.642-42.832 9.295-55.618l100.030-71.493c6.782-4.873 14.921-7.436 23.16-7.436 2.362 0 4.774 0.202 7.136 0.629 10.601 1.934 19.996 8.088 25.976 17.030l68.58 102.343c12.26 18.314 7.387 43.083-10.902 55.341zM351.037 287.806h-219.254v287.48h485.885c6.834-12.207 19.396-20.8 34.367-20.8 22.006 0 39.891 17.837 39.891 39.868v213.777c0 22.031-17.885 39.866-39.891 39.866h-560.142c-22.007 0.001-39.893-17.834-39.893-39.866v-560.193c0-22.031 17.886-39.866 39.893-39.866h259.145c22.006 0 39.892 17.835 39.892 39.866s-17.887 39.868-39.893 39.868zM612.142 768.264v-113.244h-480.359v113.244h480.359z" />
<glyph unicode="&#xe646;" glyph-name="angleright" d="M782.002 448l-540.004-450v900z" />
<glyph unicode="&#xe64c;" glyph-name="speech" d="M309.642 577.426h-0.232c-27.434 0-49.551-22.233-49.551-49.669 0-27.43 22.35-49.665 49.784-49.665 27.436 0 49.669 22.234 49.669 49.665-0.001 27.435-22.236 49.669-49.67 49.669zM512.271 577.426h-0.505c-27.434 0-49.396-22.233-49.396-49.669 0-27.43 22.468-49.665 49.901-49.665 27.435 0 49.668 22.234 49.668 49.665 0.001 27.435-22.233 49.669-49.668 49.669zM714.591 577.426h-0.231c-27.435 0-49.552-22.233-49.552-49.669 0-27.43 22.352-49.665 49.783-49.665 27.437 0 49.669 22.234 49.669 49.665 0 27.435-22.234 49.669-49.669 49.669zM667.912 827.28h-311.823c-78.693 0-152.652-30.616-208.257-86.257-55.333-55.375-85.832-129.139-85.832-207.829 0-77.335 27.512-148.077 77.491-199.178 56.536-57.818 139.38-88.512 239.608-88.859l182.104-165.379c6.326-7.14 15.328-11.059 24.522-11.059 3.531 0 7.142 0.617 10.595 1.822 12.494 4.231 21.226 15.597 22.117 28.794l12.224 139.768h37.252c162.157 0.001 294.087 131.93 294.087 294.091 0 162.156-131.93 294.086-294.088 294.086zM667.912 304.679h-60.301c-17.229 0-39.191-14.354-39.734-34.573l-9.546-88.354-140.118 118.116c-6.248 7.021-15.172 11.021-24.523 11.021-0.271 0-0.582 0-0.854 0l-12.029-0.196c-82.96 0-150.207 23.944-194.442 69.188-37.911 38.762-58.787 93.203-58.787 153.312 0 61.188 23.632 118.541 66.587 161.496 43.226 43.191 100.733 67.016 161.925 67.016h311.823c125.993 0 228.512-102.52 228.512-228.512-0.001-126.035-102.52-228.514-228.513-228.514z" />
<glyph unicode="&#xe64e;" glyph-name="angleup" d="M512 718.002l450-540.004h-900z" />
<glyph unicode="&#xe64f;" glyph-name="closesmall" d="M575.626 448.013l373.19 373.177c17.578 17.578 17.578 46.044 0 63.623-17.574 17.577-46.027 17.577-63.605 0l-373.19-373.189-373.194 373.188c-17.575 17.577-46.028 17.577-63.633 0s-17.578-46.072 0-63.649l373.161-373.176-373.161-373.164c-17.578-17.577-17.578-46.059 0-63.636 8.815-8.788 20.297-13.184 31.832-13.184 11.477 0 23.012 4.396 31.801 13.184l373.166 373.163 373.162-373.162c8.816-8.788 20.324-13.184 31.806-13.184 11.535 0 23.043 4.396 31.801 13.184 17.578 17.577 17.578 46.059 0 63.636l-373.136 373.189z" />
<glyph unicode="&#xe705;" glyph-name="see-all" d="M273.345 513.696c-36.139 0-65.384-29.245-65.384-65.382 0-36.139 29.245-65.382 65.384-65.382 36.136 0 65.381 29.243 65.381 65.382 0 36.033-29.245 65.382-65.381 65.382zM512.21 513.696c-36.138 0-65.384-29.245-65.384-65.382 0-36.139 29.246-65.382 65.384-65.382 36.137 0 65.382 29.243 65.382 65.382 0 36.033-29.35 65.382-65.382 65.382zM750.97 513.696c-36.139 0-65.383-29.245-65.383-65.382 0-36.139 29.244-65.382 65.383-65.382 36.137 0 65.381 29.243 65.381 65.382 0 36.033-29.245 65.382-65.381 65.382zM945.027 630.986c-23.71 55.984-57.549 106.221-100.684 149.355s-93.374 77.080-149.357 100.685c-57.966 24.545-119.484 36.974-182.986 36.974-63.399 0-125.020-12.429-182.986-36.973-55.983-23.71-106.22-57.55-149.355-100.685s-77.080-93.373-100.685-149.355c-24.545-57.967-36.974-119.486-36.974-182.987s12.429-125.020 36.973-182.986c23.71-55.983 57.55-106.223 100.685-149.357s93.373-77.079 149.355-100.684c57.967-24.542 119.486-36.973 182.987-36.973 63.398 0 125.020 12.431 182.986 36.973 55.983 23.71 106.223 57.549 149.357 100.684s77.079 93.374 100.684 149.357c24.542 57.966 36.973 119.485 36.973 182.986s-12.532 125.020-36.973 182.986zM907.010 281.202c-21.623-51.075-52.537-96.924-91.912-136.3s-85.226-70.289-136.3-91.911c-52.85-22.351-108.937-33.631-166.903-33.631-57.862 0-114.053 11.28-166.901 33.631-51.075 21.622-96.926 52.536-136.301 91.911s-70.29 85.225-91.91 136.3c-22.352 52.85-33.633 108.937-33.633 166.904 0 57.861 11.384 114.052 33.633 166.9 21.62 51.075 52.535 96.926 91.91 136.301s85.227 70.29 136.301 91.91c52.847 22.351 108.934 33.633 166.901 33.633 57.864 0 114.055-11.384 166.903-33.633 51.074-21.62 96.924-52.535 136.3-91.91s70.289-85.227 91.912-136.301c22.35-52.848 33.63-108.935 33.63-166.9 0-57.967-11.281-114.055-33.63-166.904z" />
<glyph unicode="&#xe788;" glyph-name="blink" d="M118.3 573.5c13-17.6 23.3-37.2 30.4-58.3s10.9-43.6 10.9-67.2c0-23.6-3.9-46.1-11-67.2s-17.4-40.7-30.4-58.3c-17.7-23.9-12.7-57.7 11.2-75.4s57.7-12.8 75.5 11.2c19.7 26.4 35.3 56.1 46.1 88.1s16.6 66.3 16.6 101.7c0 35.4-5.8 69.6-16.6 101.6-10.7 32-26.4 61.6-46 88.1-17.7 23.9-51.5 28.9-75.4 11.2-24-17.8-29-51.6-11.3-75.5zM303.2 674.1c40.6-65.8 63.9-143 63.9-226s-23.4-160.3-63.9-226c-15.6-25.4-7.7-58.6 17.6-74.3 25.4-15.6 58.6-7.7 74.2 17.6 50.7 82.1 80 179.2 79.9 282.7 0.1 103.5-29.2 200.5-79.9 282.7-15.6 25.4-48.9 33.2-74.2 17.6-25.3-15.7-33.2-49-17.6-74.3zM499.1 776.5c56.4-96.5 88.6-208.5 88.7-328.5-0.1-120-32.3-232.1-88.7-328.5-15-25.8-6.3-58.8 19.4-73.8 25.7-15.1 58.8-6.4 73.8 19.3 65.7 112.4 103.4 243.5 103.4 383 0 139.4-37.6 270.5-103.4 382.9-15 25.7-48.1 34.4-73.8 19.4s-34.4-48.1-19.4-73.8zM694.6 879.4c72.5-127.3 113.8-274.3 113.8-431.4s-41.3-304.1-113.8-431.4c-14.8-25.8-5.7-58.8 20.2-73.5 25.9-14.8 58.8-5.7 73.6 20.1 81.5 143 128 308.7 128 484.8 0 176.2-46.5 341.8-128 484.7-14.8 25.9-47.7 35-73.6 20.2-25.9-14.7-34.9-47.7-20.2-73.5z" />
<glyph unicode="&#xe900;" glyph-name="bank-medium" d="M329.043 140.412c-17.198 0-31.147-13.952-31.147-31.121 0-17.196 13.95-31.119 31.147-31.119 17.168 0 31.090 13.923 31.090 31.119 0 17.169-13.922 31.121-31.090 31.121zM950.432 691.873h-347.182v188.594c0 9.651-7.828 17.48-17.48 17.48h-513.509c-9.652 0-17.482-7.83-17.482-17.48v-864.93c0-9.653 7.83-17.484 17.482-17.484h513.509c9.652 0 17.48 7.831 17.48 17.484v293.937h347.182c10.392 0 18.79 8.398 18.79 18.792v344.816c0 10.392-8.4 18.791-18.79 18.791zM568.287 33.016h-478.545v829.969h478.545v-171.112h-52.87v96.317c0 9.652-7.829 17.481-17.481 17.481h-337.841c-9.652 0-17.481-7.83-17.481-17.481v-584.373c0-9.653 7.83-17.483 17.481-17.483h337.841c9.652 0 17.481 7.83 17.481 17.483v105.657h52.87v-276.458zM323.52 309.474h156.934v-88.177h-302.878v549.412h302.878v-78.836h-156.934c-10.391 0-18.791-8.399-18.791-18.791v-344.816c0-10.394 8.399-18.792 18.791-18.792zM931.641 347.057h-589.331v307.233h589.331v-307.233zM415.083 483.12h448.853c10.391 0 18.791 8.398 18.791 18.792s-8.4 18.791-18.791 18.791h-448.853c-10.391 0-18.791-8.399-18.791-18.791s8.4-18.792 18.791-18.792zM863.936 440.67h-167.812c-10.394 0-18.791-8.398-18.791-18.791s8.397-18.791 18.791-18.791h167.812c10.391 0 18.791 8.398 18.791 18.791s-8.402 18.791-18.791 18.791z" />
<glyph unicode="&#xe901;" glyph-name="30devices" d="M867.8 165.2c7.9 0 14.4-6.5 14.4-14.4s-6.4-14.4-14.4-14.4c-7.9 0-14.4 6.4-14.4 14.4 0 7.9 6.4 14.4 14.4 14.4zM1008.9 558.1h-60.6v232.5c0 8.3-6.7 15.1-15.1 15.1h-917.6c-8.3 0-15.1-6.7-15.1-15.1v-524.3c0-8.3 6.7-15.1 15.1-15.1h350.7v-65.2h-71.1c-8.3 0-15.1-6.7-15.1-15.1 0-8.3 6.7-15.1 15.1-15.1h358.3c8.3 0 15.1 6.7 15.1 15.1 0 8.3-6.7 15.1-15.1 15.1h-71.1v65.2h128.9v-143.4c0-8.3 6.7-15.1 15.1-15.1h282.3c8.3 0 15.1 6.7 15.1 15.1v435.2c0.2 8.3-6.5 15.1-14.9 15.1zM552.4 189.9h-155.9v59h155.9v-59zM711.5 543v-261.7h-680.8v494.2h887.4v-217.4h-191.5c-8.4 0-15.1-6.8-15.1-15.1zM993.8 122.8h-252.1v405.1h252.2v-405.1z" />
<glyph unicode="&#xe902;" glyph-name="mortgage2-medium" d="M977.718 559.028l-140.627 99.593v200.096c0 9.342-7.579 16.921-16.948 16.921h-120.205c-9.343 0-16.92-7.579-16.92-16.921v-90.967l-137.622 97.443c-8.985 6.614-20.229 10.252-32.022 10.252-11.562 0-22.68-3.529-32.161-10.224l-434.928-308.177c-7.963-5.648-13.104-14.468-14.11-24.167-0.992-9.729 2.247-19.373 8.888-26.538l29.927-32.162c6.614-7.11 15.667-10.8 24.802-10.8 6.808 0 13.641 2.038 19.552 6.227l34.185 24.196v-456.519c0-9.343 7.578-16.919 16.933-16.919h693.306c9.369 0 16.948 7.576 16.948 16.919v456.933l31.938-22.624c5.926-4.19 12.759-6.23 19.566-6.23 9.147 0 18.188 3.693 24.802 10.803l29.927 32.159c6.641 7.166 9.866 16.812 8.874 26.541-0.988 9.698-6.114 18.516-14.105 24.165zM716.885 841.796h86.338v-152.336l-86.338 61.204v91.132zM601.64 54.202v199.104h109.073v-199.104h-109.073zM842.851 54.202h-98.271v216.025c0 9.342-7.578 16.919-16.921 16.919h-142.968c-9.342 0-16.92-7.577-16.92-16.919v-216.024h-384.373v457.978l329.919 233.661 329.533-233.247v-458.393zM928.224 499.229l-414.796 293.764-417.65-295.748-29.913 32.161 434.857 308.147c3.804 2.674 8.255 4.023 12.65 4.023 4.409 0 8.79-1.349 12.456-4.023l432.322-306.165-29.926-32.159zM456.7 459.849h-148.15c-9.355 0-16.934-7.579-16.934-16.921v-148.148c0-9.343 7.579-16.922 16.934-16.922h148.148c9.356 0 16.935 7.579 16.935 16.922v148.148c0.001 9.342-7.577 16.921-16.933 16.921zM439.766 311.7h-114.282v114.309h114.282v-114.309z" />
<glyph unicode="&#xe903;" glyph-name="chasepay" d="M786 915h-548c-18.6 0-33.7-15.1-33.7-33.7v-866.6c0-18.6 15.1-33.7 33.7-33.7h548c18.6 0 33.7 15.1 33.7 33.7v866.6c0 18.6-15.1 33.7-33.7 33.7zM752.3 48.4h-480.6v799.2h480.5v-799.2zM507.1 194.6c-26.5 0-47.9-21.4-47.9-47.8 0-26.5 21.4-47.9 47.9-47.9 26.4 0 47.8 21.4 47.8 47.9 0 26.4-21.4 47.8-47.8 47.8zM345 234.1h324.2c18.6 0 33.7 15.1 33.7 33.7v511.4c0 18.6-15.1 33.7-33.7 33.7h-324.2c-18.6 0-33.7-15.1-33.7-33.7v-511.5c0-18.5 15-33.6 33.7-33.6zM378.6 745.6h256.9v-444.1h-256.9v444.1zM547.8 579.3c14.8-11.3 35.9-8.5 47.2 6.3s8.5 35.9-6.3 47.2c-14.7 11.3-30.5 18.9-46.4 23.7v6.3c0 18.6-15.1 33.7-33.7 33.7s-33.7-15.1-33.7-33.7v-6c-11.7-4-22.6-10.2-32.1-18.8-25.1-22.8-34.8-54-25.9-83.4 10.3-33.8 42.1-57.9 85.1-64.4 0 0 0.1 0 0.1 0 18.3-2.8 28.5-10.7 30.5-17.2 1.6-5.4-3.5-11.1-6.6-14-12.8-11.5-37.8-7.9-59.6 8.8-14.8 11.3-35.9 8.5-47.2-6.3s-8.5-35.9 6.3-47.2c14.7-11.3 30.5-18.9 46.4-23.7v-6.3c0-18.6 15.1-33.7 33.7-33.7s33.7 15.1 33.7 33.7v6.2c11.7 4 22.6 10.1 32 18.6 25.1 22.8 34.8 54 25.9 83.4-10.2 33.8-42 57.8-84.9 64.3-0.1 0-0.1 0.1-0.2 0.1-18.4 2.8-28.6 10.7-30.6 17.3-1.6 5.4 3.5 11.1 6.6 13.9 12.8 11.6 38 7.9 59.7-8.8z" />
<glyph unicode="&#xe904;" glyph-name="Businessservices" d="M741.2 503.8c51.9 0 94.2 42.5 94.2 94.7 0 52.1-42.3 94.6-94.2 94.6-51.8 0-94-42.4-94-94.6-0.1-52.2 42.1-94.7 94-94.7zM741.2 663.3c35.5 0 64.4-29.1 64.4-64.8 0-35.8-28.9-64.9-64.4-64.9-35.4 0-64.2 29.1-64.2 64.9-0.1 35.8 28.7 64.8 64.2 64.8zM1009.1 318.9h-114.9c-4 108.7-29.8 157.6-153 157.6-123 0-148.9-48.9-152.9-157.6h-52.1c-25.7 69.6-82.1 100.7-203.9 100.7-121.7 0-178-31.1-203.7-100.7h-113c-8.2 0-14.9-6.7-14.9-14.9s6.7-14.9 14.9-14.9h104.2c-7.6-33.4-10.8-73.5-11.7-121.4l-0.3-15.2h449.1l-0.3 15.2c-0.9 47.9-4.1 88-11.7 121.4h464.2c8.2 0 14.9 6.7 14.9 14.9s-6.7 14.9-14.9 14.9zM618 319.5c3.5 98.1 23.2 127.2 123.1 127.2 100 0 119.8-29.1 123.3-127.2h-246.4zM332.2 747.7c-82.3 0-149.3-67.4-149.3-150.3 0-83 67-150.5 149.3-150.5 82.5 0 149.6 67.5 149.6 150.5 0.1 82.9-67.1 150.3-149.6 150.3z" />
<glyph unicode="&#xe905;" glyph-name="debitcards" d="M185.4 517.8h-36.4c-27.7 0-50.3-22.6-50.3-50.3s22.6-50.3 50.3-50.3h36.4c27.7 0 50.3 22.6 50.3 50.3s-22.6 50.3-50.3 50.3zM185.4 447.4h-36.4c-11.1 0-20.1 9-20.1 20 0 11.1 9 20 20.1 20h36.4c11.1 0 20.1-9 20.1-20-0.1-11-9.1-20-20.1-20zM851.3 480.1c-8.8 0-17.3-0.9-25.7-2.1v195.9c0 47.1-38.4 85.5-85.5 85.5h-650.9c-47.1 0-85.5-38.4-85.5-85.5v-362.4c0-47.2 38.4-85.5 85.5-85.5h609.9c29.1-54.3 86.4-91.3 152.2-91.3 95.2 0 172.7 77.5 172.7 172.7s-77.5 172.7-172.7 172.7zM795.3 649.4v-34.2h-761.3v34.2h761.3zM89.2 729.1h650.9c28.5 0 51.7-21.7 54.7-49.5h-760.3c3 27.8 26.2 49.5 54.7 49.5zM89.2 256.2c-30.5 0-55.2 24.8-55.2 55.3v273.3h761.4v-114.3c-19.6-6.7-37.6-16.7-53.3-29.6v53.4c0 8.4-6.8 15.1-15.1 15.1h-421.4c-8.4 0-15.1-6.8-15.1-15.1v-58.9c0-8.4 6.8-15.1 15.1-15.1h415.4c-26.3-30.3-42.4-69.8-42.4-113 0-17.8 2.7-35 7.7-51.1h-597.1zM711.8 479.3v-28.6h-391.1v28.6h391.1zM851.3 165c-78.5 0-142.4 63.9-142.4 142.4s63.9 142.4 142.4 142.4c78.5 0 142.4-63.9 142.4-142.4s-63.9-142.4-142.4-142.4zM773.4 325.3h155.3v-30.3h-155.3v30.3z" />
<glyph unicode="&#xe906;" glyph-name="fraudprotection" d="M507.7 75.4c-2.6 0-5.1 0.6-7.5 1.8-32.2 11.8-61.4 30.8-80.7 44.2-113.1 78.3-192.9 203.9-224.7 353.8-8.3 39.2-13.6 80.6-15.8 123-0.7 13.5 0 50.3 0.1 51.8 0.1 5.6 3 10.8 7.7 13.8 2.6 1.7 25.6 16.7 34.5 21.5 44.2 23.6 90.1 45.5 134.4 66.6 47.5 22.6 96.6 46 143.4 71.5 0.5 0.3 1.1 0.6 1.7 0.9 1.1 0.5 2.1 0.9 3.3 1.1 4 0.9 8.3 0.4 12-1.6 52.9-28.9 108.3-55.4 161.9-81.2 25.3-12.1 50.6-24.3 75.8-36.7 21.8-10.8 71.4-38.2 73.5-39.3 5.3-2.9 8.6-8.5 8.7-14.5 0-2.3 1-56-0.9-79.1-7-85.7-26.7-164.3-58.5-233.4-26-56.6-60.1-107.2-101.4-150.6-25.1-26.3-53.2-47.1-80.4-67.2l-17-12.6c-25-15.6-45-25.8-64-32.9-2.1-0.5-4.1-0.9-6.1-0.9zM212.8 640.4c-0.2-11.8-0.4-31.9 0-40.4 2.1-40.6 7.2-80.2 15.2-117.7 30-141.4 104.9-259.7 210.9-333 16.9-11.7 42-28.1 69-38.7 15.1 6.2 31.4 14.8 50.7 26.7l15.9 11.9c27.2 20.1 52.9 39.1 76 63.3 38.7 40.6 70.7 88.1 95.1 141.3 30.1 65.6 48.8 140.3 55.5 222.1 1.3 15.9 1.1 49.3 1 66-15.5 8.5-47.7 26.1-63.5 33.9-25.1 12.4-50.4 24.6-75.7 36.7-51.2 24.6-104 49.9-155.1 77.4-45-24.2-92-46.6-137.6-68.3-44-21-89.5-42.7-133-65.9-4.7-2.7-16.1-9.9-24.4-15.3zM625.5 586.2h-236.2c-9.4 0-16.9 7.6-16.9 17s7.6 17 16.9 17h236.2c9.4 0 16.9-7.6 16.9-17s-7.6-17-16.9-17zM625.5 472.7h-236.2c-9.4 0-16.9 7.6-16.9 17s7.6 17 16.9 17h236.2c9.4 0 16.9-7.6 16.9-17s-7.6-17-16.9-17z" />
<glyph unicode="&#xe907;" glyph-name="globalbanking" d="M844.1 599.4c-59.6 131.7-191.6 216.8-336.2 216.8-52.5 0-103.7-11.1-151.9-32.9-185.2-83.9-267.7-302.8-183.8-488 59.6-131.7 191.6-216.8 336.2-216.8 52.5 0 103.7 11.1 151.9 32.9 89.7 40.6 158.3 113.8 193 205.9 34.6 92.2 31.4 192.4-9.2 282.1zM831.9 524.5c-0.7-1-1.6-1.8-2.1-2.9-19.9-44.7-48.6-85.3-83.1-121.4-6.5 45.1-19.1 89.5-38 132.2 28.9 30.7 54 64.8 74.6 101.8 10.6-15.6 20.1-32 28-49.5 8.9-19.6 15.7-39.8 20.6-60.2zM662.8 153.1l-47.8 105.7c35.8 17.7 69.6 38.8 100.6 63.2-0.7-52.2-9.9-104.3-28.3-154.7-8-5.1-16.1-9.8-24.5-14.2zM605 129.2c-50.3 19.5-95.2 47-134.2 80.1 38.3 7.8 75.8 19.4 111.6 34.5l47.8-105.6c-8.3-3.3-16.7-6.4-25.2-9zM178.6 401.9c-6.4 46.8-2.6 93.7 10.2 138 21.3-2.9 42.6-4.8 63.7-4.8 5.6 0 11.2 0.3 16.8 0.5 3.3-50.2 14-99.2 31.5-145.7-40.2-0.7-80.7 3-120.5 11.9-0.6 0.2-1.1 0-1.7 0.1zM356.4 743.1l62.9-138.9c-36.6-15-75.2-25.2-114.7-29.9 0.6 51.9 9.5 104.4 28.3 155.7 7.6 4.7 15.4 9 23.5 13.1zM415.8 766.8c49.7-19.3 94.6-46.6 134.1-80.1-29.6-26.9-62.7-49.6-98.1-67.5l-62.8 138.6c8.9 3.3 17.8 6.4 26.8 9zM665.3 539.6c-39.5-38-85.2-69.6-134.9-93.9l-63.7 140.7c39.9 20 77 45.4 110 75.9 35.6-35.5 65.5-76.7 88.6-122.7zM713.9 368.9c-34.3-29.8-72.9-55.3-114.4-75.9l-54.3 119.9c49.6 24.1 95.5 55.1 135.8 92 17.9-44 28.8-89.7 32.9-136zM305.4 538.3c44.4 5 87.7 16.2 128.7 33.2l63.6-140.5c-50.4-20.7-104-34.1-158.7-39-18.8 46.5-30.3 95.7-33.6 146.3zM512.5 398.2l54.4-120c-41.6-17.5-85.4-30-130-37.1-33.4 34.6-61.1 73.9-82.4 116.5 54.5 6.1 107.8 19.8 158 40.6zM759.6 665.3c0 0 0 0 0 0-18.3-35.8-41.4-68.7-67.9-98.5-23.9 45-54 85.5-89.4 120.7 17.4 18.7 33.3 39.2 47.6 60.9 41.7-19.8 79.2-48 109.7-83.1zM615.7 762.1c-12.2-17.8-25.6-34.5-40.1-50.1-30 25.8-63 48.3-98.8 66.6 10.3 1 20.6 1.6 31.1 1.6 37.3 0.1 73.6-6.4 107.8-18.1zM283.8 693c-10.3-40.4-15.4-81.1-15.7-121.5-22.3-0.8-44.7 0.2-67.1 2.9 18.5 44.6 46.4 85.3 82.8 118.6zM186.2 364.1c34.8-6.9 70-10.4 105.1-10.4 8.1 0 16.3 0.5 24.4 0.8 19.9-42.7 45.5-82.7 76.6-118.6-50.5-3.7-101.2-0.3-150.2 11.5-14.5 19.2-27 40.1-37.1 62.6-8.1 17.8-14.1 35.9-18.8 54.1zM282.3 203.2c25-3.6 50.2-5.5 75.3-5.5 22.4 0 44.7 1.7 66.8 4.3 35.1-33.7 75.5-62.6 120.5-85.5-12.1-1.3-24.3-2.1-36.7-2.1-85.1 0.1-165.4 33-225.9 88.8zM819.6 330c-18.1-48.1-46.8-90.3-83.1-124.5 12.2 48.4 17.1 97.8 14.8 146.9 35.2 33 65.3 70.6 89.2 111.9 2.3-45.2-4.5-90.7-20.9-134.3z" />
<glyph unicode="&#xe908;" glyph-name="merchantservices" d="M878.6 794.4h-628.8c-5.5 0-10.6-2.8-13.5-7.4l-105.3-162.7c-3.2-5-3.4-11.3-0.6-16.4 2.8-5.2 8.2-8.4 14.1-8.4h52.9v-486.2c0-8.9 7.2-16.1 16.1-16.1h665c8.9 0 16.1 7.2 16.1 16.1v665c0.1 8.9-7.1 16.1-16 16.1zM757 631.6h-118.7l80.9 130.5h119.9l-82.1-130.5zM527.1 762.2l-80.7-130.5h-117l80.6 130.5h117.1zM564.9 762.2h116.3l-80.9-130.5h-116l80.6 130.5zM174.2 631.6l84.4 130.5h113.6l-80.6-130.5h-117.4zM438 129.3h-123.4v293.3h123.4v-293.3zM470.2 129.3v309.4c0 8.9-7.2 16.1-16.1 16.1h-155.6c-8.9 0-16.1-7.2-16.1-16.1v-309.3h-52.7v470h536.5c6.7 0 12.5 4.1 14.9 10l81.4 129.4v-609.5h-392.3zM793.7 511.4h-240.5c-8.9 0-16.1-7.2-16.1-16.1v-240.5c0-8.9 7.2-16.1 16.1-16.1h240.5c8.9 0 16.1 7.2 16.1 16.1v240.5c0 8.9-7.2 16.1-16.1 16.1zM777.6 270.8h-208.3v208.4h208.3v-208.4z" />
<glyph unicode="&#xe909;" glyph-name="paymentstransfers" d="M527.9 582.8v46.8c0 9.7-7.8 17.6-17.5 17.6s-17.5-7.9-17.5-17.6v-49.3c-14.5-3.5-28-9.8-39-19.8-22-20-30.6-46.9-23-72 8.6-28.2 35-48.9 71.4-56.3 1.3-0.6 2.8-1 4.3-1.2 25.8-3.9 44.9-16.5 49.9-33 3.7-12.2-1-24.9-13-35.9-22.7-20.5-64.3-18.2-94.8 5.2-7.7 5.9-18.7 4.5-24.6-3.2s-4.4-18.7 3.2-24.6c19.9-15.2 43-23.5 65.6-25.5v-46.8c0-9.7 7.8-17.6 17.5-17.6s17.5 7.9 17.5 17.6v49.2c14.5 3.5 28 9.9 39 19.8 22 20 30.6 46.9 23 72-8.6 28.2-35 48.9-71.4 56.3-1.3 0.6-2.8 1-4.3 1.2-25.8 3.9-44.9 16.5-49.9 33-3.7 12.2 1 24.9 13 35.9 22.7 20.5 64.3 18.2 94.8-5.2 7.7-5.9 18.7-4.5 24.6 3.2s4.4 18.7-3.2 24.6c-19.9 15.3-43 23.6-65.6 25.6zM510.4 814.2c-201.7 0-365.8-164.1-365.8-365.8s164.1-365.8 365.8-365.8 365.8 164.1 365.8 365.8-164.1 365.8-365.8 365.8zM510.4 117.7c-182.4 0-330.7 148.3-330.7 330.7s148.3 330.7 330.7 330.7c182.4 0 330.7-148.3 330.7-330.7s-148.4-330.7-330.7-330.7z" />
<glyph unicode="&#xe90a;" glyph-name="quickpay" d="M818.5 111.8l-69.5 0.4c91 71.3 146.7 180 150.3 296.3 3.2 104.5-34.5 203.9-106.1 280.1s-168.6 119.8-273.1 123c-104.2 3.3-204-34.4-280.1-106.1-76.1-71.6-119.8-168.6-123-273.1-2.7-88.4 23.5-172.7 75.8-243.7 6.8-9.1 19.6-11.1 28.7-4.3 9.1 6.7 11.1 19.6 4.3 28.7-46.8 63.5-70.3 138.9-67.8 218.1 2.9 93.5 42 180.3 110.1 244.4s157 97.6 250.7 95c93.5-2.9 180.3-42 244.4-110.1s97.8-157.2 95-250.7c-3.2-106.2-55-205.4-139.5-269.1l0.5 71.8c0.1 10.6-8.5 19.3-19.1 19.3h-0.1c-10.6 0-19.1-8.5-19.2-19.1l-0.8-119.3c-0.1-5.1 1.9-10 5.5-13.6s8.5-5.7 13.5-5.7l119.3-0.7c10.6 0 19.1 8.5 19.2 19.1 0.2 10.5-8.4 19.2-19 19.3zM692.2 565.9c0 46.7-37.8 84.7-84.4 84.7-46.4 0-84.2-38-84.2-84.7 0-46.8 37.8-84.8 84.2-84.8 46.5 0 84.4 38 84.4 84.8zM555.3 565.9c0 29.2 23.6 53 52.5 53 29 0 52.7-23.8 52.7-53 0-29.3-23.6-53.2-52.7-53.2-29 0-52.5 23.9-52.5 53.2zM727.5 297.9c4.2 0 8.3 1.7 11.3 4.8 3 3 4.6 7.1 4.5 11.4-2.1 104.5-22.1 151.2-135.6 151.2-83.4 0-116.2-25.4-128.5-80.4-14.7 4.2-31.9 6.7-52.1 6.7-115.5 0-134.6-75.7-136.8-155.2h273.8c-0.6 21.3-2.5 42.2-7 61.6h170.4zM607.8 433.5c83.6 0 100.2-22.6 103.5-104h-165.1c-8.3 17.2-20.3 31.8-37.5 42.6 8.6 46.9 32.6 61.4 99.1 61.4zM515.3 508.3c0 48.8-39.5 88.5-88.1 88.5-48.5 0-87.9-39.8-87.9-88.5 0-49 39.4-88.7 87.9-88.7 48.6 0 88.1 39.8 88.1 88.7z" />
<glyph unicode="&#xe90b;" glyph-name="receiveables" d="M267.2 372.4c0-7.4 6-13.5 13.5-13.5h640.6c7.5 0 13.5 6.1 13.5 13.5s-6 13.5-13.5 13.5h-640.6c-7.4 0-13.5-6-13.5-13.5zM921.4 301.3h-246c-7.5 0-13.5-6.1-13.5-13.5s6-13.5 13.5-13.5h246c7.5 0 13.5 6.1 13.5 13.5s-6.1 13.5-13.5 13.5zM275.3 501h123.3c7.5 0 13.5 6.1 13.5 13.5s-6 13.5-13.5 13.5h-123.3c-7.5 0-13.5-6.1-13.5-13.5 0-7.5 6-13.5 13.5-13.5zM398.5 459.8c7.5 0 13.5 6.1 13.5 13.5s-6 13.5-13.5 13.5h-123.2c-7.5 0-13.5-6.1-13.5-13.5s6-13.5 13.5-13.5h123.2zM1024 460.1c0 4.7-2.4 8.9-6.1 11.3l-57.7 56-67.3 67.8c-2.5 2.6-6 4-9.6 4h-38.3v83c0 1.1-0.4 2-0.6 3 0 0.4 0.2 0.8 0.2 1.2 0 7.4-6 13.5-13.5 13.5h-818c-7.5 0-13.5-6.1-13.5-13.5 0-0.1 0.1-0.2 0.1-0.3s-0.1-0.2-0.1-0.3v-371.9c0-0.9 0.3-1.6 0.5-2.4-0.2-0.8-0.5-1.5-0.5-2.4 0-7.4 6-13.5 13.5-13.5h165.1v-87.2c0-7.4 6-13.5 13.5-13.5h818.4c7.5 0 13.5 6.1 13.5 13.5v249.5c0 0.1 0 0.2 0 0.2 0.1 0.7 0.4 1.3 0.4 2zM896.8 551.3l44.4-43.1 34.3-34.5h-78.7v77.6zM26.7 322.6v350.2h791.4v-73.7h-626.3c-7.5 0-13.5-6.1-13.5-13.5v-263.1h-151.6zM996.7 221.9h-791.4v350.3h664.5v-112c0-7.4 6-13.5 13.5-13.5h113.3v-224.8z" />
<glyph unicode="&#xe90c;" glyph-name="sm_Debitcards" d="M786.5 516.4v263.8c0 12.9-10.4 23.3-23.3 23.3h-672.5c-12.9 0-23.3-10.5-23.3-23.3v-479.1c0-12.9 10.4-23.3 23.3-23.3h433c13.6-106.5 104.6-189.2 214.7-189.2 119.5 0 216.6 97.2 216.6 216.7 0 102.9-72.2 189.2-168.5 211.1zM739.8 756.9v-98.8h-625.8v98.8h625.8zM114 597.9h625.8v-76c-0.5 0-1 0.1-1.4 0.1-113 0-206-87-215.7-197.5h-408.7v273.4zM738.4 135.3c-93.8 0-170 76.3-170 170 0 93.8 76.3 170 170 170s170-76.3 170-170c0-93.8-76.3-170-170-170zM827.6 328.6h-178.4c-12.9 0-23.3-10.5-23.3-23.3s10.4-23.3 23.3-23.3h178.5c12.9 0 23.3 10.5 23.3 23.3s-10.5 23.3-23.4 23.3z" />
<glyph unicode="&#xe90d;" glyph-name="sm_Linkicon" d="M866.7 667.8l-141.3 141.3c-36.6 36.6-96.2 36.6-132.8 0l-141.2-141.3c-35.3-35.5-35.3-97.4 0-132.8l26.2-26.2 62.8 62.9-25.3 25.3c-0.1 0.1 0 0.2-0.1 0.3l-0.6 0.6v0.9c-0.8 1.7-0.8 3.4 0 5.1v1l0.7 0.7v0.1l140.5 140.6c1.6 1.6 5.3 1.6 6.9 0l0.3-0.3c0.2-0.2 0.6-0.1 0.8-0.3l139.8-139.8c0.2-0.2 0.1-0.5 0.3-0.7l0.1-0.1c1-0.9 1.1-2 1.2-2.9 0.2-1.8-0.1-3.7-1.5-5.1l-139.8-139.9c-0.3-0.3-0.7-0.2-1-0.4l-0.1-0.1c-0.3-0.3-0.9-0.3-1.3-0.5-0.7-0.3-1.3-0.8-2.1-0.7-1.4 0-2.7 0.4-3.5 1.2l-0.4 0.4c-0.1 0.1-0.2 0-0.2 0.1l-22.6 22.6-62.8-62.9 23.2-23.2c36.6-36.6 96.2-36.6 132.8 0l141 141.3c17.7 17.7 27.4 41.3 27.4 66.4s-9.7 48.7-27.4 66.4zM150.5 234.3l141.3-141.3c36.6-36.6 96.2-36.6 132.8 0l141.2 141.3c35.3 35.5 35.3 97.4 0 132.8l-26.2 26.2-62.8-62.9 25.3-25.3c0.1-0.1 0-0.2 0.1-0.3l0.6-0.6v-0.9c0.8-1.7 0.8-3.4 0-5.1v-1l-0.7-0.7c0 0 0 0 0 0l-139.8-139.9c0 0 0 0 0 0l-0.7-0.7c-1.6-1.6-5.3-1.6-6.9 0l-0.3 0.3c-0.2 0.2-0.6 0.1-0.8 0.3l-139.8 139.9c-0.2 0.2-0.1 0.5-0.3 0.7l-0.1 0.1c-1 0.9-1.1 2-1.2 2.9-0.2 1.8 0.1 3.7 1.5 5.1l139.8 139.9c0.3 0.3 0.7 0.2 1 0.4l0.1 0.1c0.3 0.3 0.9 0.3 1.3 0.5 0.7 0.3 1.3 0.8 2.1 0.7 1.4 0 2.7-0.4 3.5-1.2l0.4-0.4c0.1-0.1 0.2 0 0.2-0.1l22.6-22.6 62.8 62.9-23.2 23.2c-36.6 36.6-96.2 36.6-132.8 0l-141-141.4c-17.7-17.7-27.4-41.3-27.4-66.4 0-25.2 9.8-48.8 27.4-66.5zM651.7 592.8c14.8-14.8 14.8-39 0-53.8l-231.5-231.5c-14.8-14.8-39-14.8-53.8 0l-3 3c-14.8 14.8-14.8 39 0 53.8l231.5 231.6c14.8 14.8 39 14.8 53.8 0l3-3.1z" />
<glyph unicode="&#xe90e;" glyph-name="sm_Receiveables" d="M988.3 609.6h-178v116.5c0 12.8-10.4 23.3-23.3 23.3h-751.8c-12.9 0-23.3-10.4-23.3-23.3v-413.6c0-12.8 10.4-23.3 23.3-23.3h178v-116.4c0-12.8 10.4-23.3 23.3-23.3h751.9c12.9 0 23.3 10.4 23.3 23.3v413.5c-0.1 12.9-10.5 23.3-23.4 23.3zM58.4 335.8v367h705.4v-93.1h-527.4c-12.9 0-23.3-10.4-23.3-23.3v-250.6h-154.7zM965.1 196.1h-705.4v367h705.4v-367zM334.4 378.1h556c12.9 0 23.3 10.4 23.3 23.3s-10.4 23.3-23.3 23.3h-556c-12.9 0-23.3-10.4-23.3-23.3s10.4-23.3 23.3-23.3zM890.4 308.3h-207.1c-12.9 0-23.3-10.4-23.3-23.3 0-12.8 10.4-23.3 23.3-23.3h207.1c12.9 0 23.3 10.4 23.3 23.3s-10.5 23.3-23.3 23.3z" />
<glyph unicode="&#xe90f;" glyph-name="insights_med" d="M693.7 181.2h-349.5c-8.4 0-15.3 6.8-15.3 15.3 0 8.4 6.8 15.3 15.3 15.3h349.5c8.4 0 15.3-6.8 15.3-15.3-0.1-8.5-6.9-15.3-15.3-15.3zM781.4 795.6h-541.3c-8.4 0-15.3-6.8-15.3-15.3v-664.8c0-8.4 6.8-15.3 15.3-15.3h541.4c8.4 0 15.3 6.8 15.3 15.3v664.8c-0.1 8.5-6.9 15.3-15.4 15.3zM766.2 765.1v-32.5h-510.9v32.5h510.9zM255.3 130.7v571.3h510.9v-571.3h-510.9zM344.6 310.5h155.2c8.4 0 15.3 6.8 15.3 15.3v130c0 8.4-6.8 15.3-15.3 15.3h-155.2c-8.4 0-15.3-6.8-15.3-15.3v-130.1c0.1-8.4 6.9-15.2 15.3-15.2zM359.9 440.6h124.7v-99.6h-124.7v99.6zM693.7 270h-349.5c-8.4 0-15.3-6.8-15.3-15.3 0-8.4 6.8-15.3 15.3-15.3h349.5c8.4 0 15.3 6.8 15.3 15.3-0.1 8.5-6.9 15.3-15.3 15.3zM549.4 441.3h144.1c8.4 0 15.3 6.8 15.3 15.3 0 8.4-6.8 15.3-15.3 15.3h-144.1c-8.4 0-15.3-6.8-15.3-15.3s6.8-15.3 15.3-15.3zM549.4 375.9h144.1c8.4 0 15.3 6.8 15.3 15.3 0 8.4-6.8 15.3-15.3 15.3h-144.1c-8.4 0-15.3-6.8-15.3-15.3s6.8-15.3 15.3-15.3zM549.4 310.5h144.1c8.4 0 15.3 6.8 15.3 15.3 0 8.4-6.8 15.3-15.3 15.3h-144.1c-8.4 0-15.3-6.8-15.3-15.3s6.8-15.3 15.3-15.3zM693.8 644.7h-349.5c-8.4 0-15.3-6.8-15.3-15.3v-77.4c0-8.4 6.8-15.3 15.3-15.3h349.5c8.4 0 15.3 6.8 15.3 15.3v77.4c-0.1 8.5-6.9 15.3-15.3 15.3zM678.5 567.3h-319v46.9h319v-46.9z" />
<glyph unicode="&#xe910;" glyph-name="insights_sm" d="M744.7 766.1h-467.3c-12.9 0-23.4-10.5-23.4-23.4v-590c0-12.9 10.5-23.4 23.4-23.4h467.3c12.9 0 23.4 10.5 23.4 23.4v590c0 12.9-10.5 23.4-23.4 23.4zM721.3 719.2v-33.7h-420.5v33.7h420.5zM300.8 176v462.7h420.5v-462.7h-420.5zM501.6 338.8c12.9 0 23.4 10.5 23.4 23.4v112.3c0 12.9-10.5 23.4-23.4 23.4h-126c-12.9 0-23.4-10.5-23.4-23.4v-112.3c0-12.9 10.5-23.4 23.4-23.4h126zM399 451.1h79.1v-65.5h-79.1v65.5zM660.1 286.6h-292.8c-12.9 0-23.4-10.5-23.4-23.4s10.5-23.4 23.4-23.4h292.8c12.9 0 23.4 10.5 23.4 23.4s-10.5 23.4-23.4 23.4zM669.7 590.9h-305.5c-12.9 0-23.4-10.5-23.4-23.4s10.5-23.4 23.4-23.4h305.6c12.9 0 23.4 10.5 23.4 23.4 0 13-10.5 23.4-23.5 23.4zM667.8 491.2h-94c-12.9 0-23.4-10.5-23.4-23.4s10.5-23.4 23.4-23.4h94c12.9 0 23.4 10.5 23.4 23.4 0.1 12.9-10.4 23.4-23.4 23.4zM667.8 396.7h-94c-12.9 0-23.4-10.5-23.4-23.4s10.5-23.4 23.4-23.4h94c12.9 0 23.4 10.5 23.4 23.4s-10.4 23.4-23.4 23.4z" />
<glyph unicode="&#xe911;" glyph-name="security_med" d="M784.4 548.6h-81.8v103.8c0 91.9-85.8 166.6-191.2 166.6-105.5 0-191.3-74.7-191.3-166.6v-103.8h-83c-8 0-14.4-6.5-14.4-14.4v-439.6c0-8 6.5-14.4 14.4-14.4h547.4c8 0 14.4 6.5 14.4 14.4v439.6c-0.1 7.9-6.5 14.4-14.5 14.4zM349 652.4c0 76 72.9 137.7 162.4 137.7s162.4-61.8 162.4-137.7v-103.8h-19.4v97c0 68.6-64.2 124.5-143.1 124.5s-143.1-55.8-143.1-124.5v-97h-19.2v103.8zM625.6 548.6h-228.5v97c0 52.7 51.3 95.6 114.3 95.6s114.2-42.9 114.2-95.6v-97zM770 519.7v-319.9h-518.5v319.9h518.5zM612.7 109l-36.1 61.9h102.1l36.1-61.9h-102.1zM477.4 109l-36.1 61.9h102l36.1-61.9h-102zM343.2 109l-36.1 61.9h100.7l36.1-61.9h-100.7zM251.5 170.9h22.2l36.1-61.9h-58.3v61.9zM748.3 109l-36.1 61.9h57.8v-61.9h-21.7zM474.8 355.5v-71.1c0-8 6.5-14.4 14.4-14.4h46.7c8 0 14.4 6.5 14.4 14.4v71.7c12 9.7 19 23.6 19 38.5 0 28.5-25.6 51.7-57.1 51.7s-57.2-23.2-57.2-51.7c0-15.3 7.3-29.4 19.8-39.1zM512.2 417.5c15.6 0 28.3-10.2 28.3-22.8 0-7.3-4.4-14.2-11.8-18.5-4.4-2.6-7.1-7.3-7.1-12.5v-64.7h-17.9v64.3c0 5.2-2.8 10.1-7.4 12.6-7.7 4.3-12.3 11.3-12.3 18.8-0.1 12.5 12.6 22.8 28.2 22.8z" />
<glyph unicode="&#xe912;" glyph-name="security_sm" d="M797.6 551.5h-58.8v107.3c0 105.9-101.6 192.2-226.5 192.2s-226.6-86.2-226.6-192.2v-107.4h-60c-13 0-23.5-10.5-23.5-23.5v-459.3c0-13 10.5-23.5 23.5-23.5h571.9c13 0 23.5 10.5 23.5 23.5v459.4c0 12.9-10.5 23.5-23.5 23.5zM332.6 658.8c0 80.1 80.6 145.2 179.7 145.2 99 0 179.6-65.1 179.6-145.2v-107.4h-21.7v93c0 76.3-70.8 138.4-157.9 138.4s-157.9-62.1-157.9-138.4v-93h-21.8v107.4zM623.3 551.5h-222v93c0 50.4 49.8 91.5 111 91.5s111-41 111-91.5v-93zM774.2 504.5v-317.5h-525v317.5h525zM623.1 92.1l-28 47.9h87.3l28-47.9h-87.3zM481.6 92.1l-28 47.9h87.1l28-47.9h-87.1zM341.5 92.1l-28 47.9h85.8l28-47.9h-85.8zM249.2 140h10l28-47.9h-37.9v47.9zM764.7 92.1l-28 47.9h37.5v-47.9h-9.5z" />
<glyph unicode="&#xe913;" glyph-name="SavingsCDs_med" d="M846.7 450.6h-39.8v77.7c0 37.9-28.2 70.4-65.7 75.5-0.6 0.1-1.3 0.1-1.9 0.1l-47.4 0.1v105.9c0 1.2-0.2 2.5-0.5 3.7-8.8 33.5-39.2 56.9-73.8 56.9-6.5 0-13-0.9-18.4-2.3l-439.1-85.4c-40.7-10.7-63.1-43-63.1-90.9l-0.4-378.7c0-58.3 31.1-86.6 95.2-86.6l538.8-0.3c42.1 0 76.4 34.2 76.4 76.3v90.7h39.8c43.4 0 78.7 35.3 78.7 78.7s-35.4 78.6-78.8 78.6zM662.9 604h-320.5l320.5 51.8v-51.8zM166.6 654.5l439.1 85.4c3.9 1 8 1.6 12 1.6 20.9 0 39.2-13.7 45.2-33.6v-22.7l-497-80.3c-0.9-0.1-1.6-0.6-2.3-0.9h-36.9c2.9 27.6 16.2 44.2 39.9 50.5zM777.9 202.6c0-26.1-21.2-47.3-47.3-47.3l-538.8 0.3c-55.1 0-66.2 22-66.2 57.5l0.4 361.8h600.7c0.1 0 0.1 0 0.2 0h11.3c22.7-3.6 39.7-23.5 39.7-46.6v-77.7h-49.3c-43.4 0-78.7-35.3-78.7-78.7s35.3-78.7 78.7-78.7h49.3v-90.6zM846.7 322.3h-118.1c-27.4 0-49.6 22.3-49.6 49.6 0 27.4 22.3 49.6 49.6 49.6h118.1c27.4 0 49.6-22.3 49.6-49.6 0.1-27.3-22.2-49.6-49.6-49.6zM843.3 394.1c-12.2 0-22.1-9.9-22.1-22.2 0-12.2 9.9-22.1 22.1-22.1s22.1 9.9 22.1 22.1c0.1 12.3-9.9 22.2-22.1 22.2z" />
<glyph unicode="&#xe914;" glyph-name="SavingsCDs_sm" d="M801.5 611.9c-1 0.2-2.1 0.2-3.2 0.2l-38.1 0.1v96.5c0 2-0.3 4.1-0.8 6-9.8 37.6-43.9 63.9-82.7 63.9-7.3 0-14.6-0.9-20.2-2.5l-439.7-85.6c-45.2-11.9-70-47.4-70-99.9l-0.5-378.6c0-63.6 35.2-95.9 104.5-95.9l538.8-0.3c47.2 0 85.6 38.4 85.6 85.6v325.8c0 42.5-31.6 78.9-73.7 84.7zM227.3 644.2l439.7 85.6c3.2 0.8 6.4 1.3 9.6 1.3 16.3 0 30.7-10.4 35.9-25.7v-93.1h-515.6c5.7 22.2 20 29.1 30.4 31.9zM827.6 201.4c0-20.9-17.1-38-38-38l-538.8 0.3c-52.7 0-56.9 20.9-56.9 48.2l0.4 352.5h591.4c0.1 0 0.2 0.1 0.3 0.1h10.4c17.9-3.2 31.2-18.9 31.2-37.3v-325.8z" />
<glyph unicode="&#xe915;" glyph-name="quickpay_sm" d="M818.5 111.8l-69.5 0.4c91 71.3 146.7 180 150.3 296.3 3.2 104.5-34.5 203.9-106.1 280.1s-168.6 119.8-273.1 123c-104.2 3.3-204-34.4-280.1-106.1-76.1-71.6-119.8-168.6-123-273.1-2.7-88.4 23.5-172.7 75.8-243.7 6.8-9.1 19.6-11.1 28.7-4.3 9.1 6.7 11.1 19.6 4.3 28.7-46.8 63.5-70.3 138.9-67.8 218.1 2.9 93.5 42 180.3 110.1 244.4s157 97.6 250.7 95c93.5-2.9 180.3-42 244.4-110.1s97.8-157.2 95-250.7c-3.2-106.2-55-205.4-139.5-269.1l0.5 71.8c0.1 10.6-8.5 19.3-19.1 19.3h-0.1c-10.6 0-19.1-8.5-19.2-19.1l-0.8-119.3c-0.1-5.1 1.9-10 5.5-13.6s8.5-5.7 13.5-5.7l119.3-0.7c10.6 0 19.1 8.5 19.2 19.1 0.2 10.5-8.4 19.2-19 19.3zM692.2 565.9c0 46.7-37.8 84.7-84.4 84.7-46.4 0-84.2-38-84.2-84.7 0-46.8 37.8-84.8 84.2-84.8 46.5 0 84.4 38 84.4 84.8zM555.3 565.9c0 29.2 23.6 53 52.5 53 29 0 52.7-23.8 52.7-53 0-29.3-23.6-53.2-52.7-53.2-29 0-52.5 23.9-52.5 53.2zM727.5 297.9c4.2 0 8.3 1.7 11.3 4.8 3 3 4.6 7.1 4.5 11.4-2.1 104.5-22.1 151.2-135.6 151.2-83.4 0-116.2-25.4-128.5-80.4-14.7 4.2-31.9 6.7-52.1 6.7-115.5 0-134.6-75.7-136.8-155.2h273.8c-0.6 21.3-2.5 42.2-7 61.6h170.4zM607.8 433.5c83.6 0 100.2-22.6 103.5-104h-165.1c-8.3 17.2-20.3 31.8-37.5 42.6 8.6 46.9 32.6 61.4 99.1 61.4zM515.3 508.3c0 48.8-39.5 88.5-88.1 88.5-48.5 0-87.9-39.8-87.9-88.5 0-49 39.4-88.7 87.9-88.7 48.6 0 88.1 39.8 88.1 88.7z" />
<glyph unicode="&#xe916;" glyph-name="paymentstransfers_sm" d="M533 580v39.4c0 12.2-9.9 22.1-22 22.1-12.2 0-22-9.9-22-22.1v-42.4c-13-3.8-25.2-9.9-35.2-18.9-22.4-20.4-31.2-48-23.3-73.8 8.7-28.6 35-49.5 71.3-56.9 1.5-0.6 3.1-1.1 4.8-1.3 26.7-4 39.7-16.8 42.9-27.4 2.8-9.4-1-19.5-10.8-28.4-19.6-17.7-56-15.4-82.9 5.2-9.7 7.4-23.5 5.6-30.9-4.1s-5.6-23.5 4.1-30.9c18.2-13.9 39.2-22.1 60-24.8v-39.4c0-12.2 9.9-22.1 22-22.1 12.2 0 22 9.9 22 22.1v42.5c13 3.8 25.2 9.8 35.2 18.9 22.4 20.4 31.2 48 23.3 73.8-8.7 28.6-35 49.5-71.2 57-1.5 0.6-3.1 1.1-4.8 1.3-26.7 4-39.7 16.8-42.9 27.4-2.8 9.4 1 19.5 10.8 28.4 19.6 17.7 56 15.4 82.9-5.2 9.7-7.4 23.5-5.6 30.9 4.1s5.6 23.5-4.1 30.9c-18.3 13.8-39.3 21.9-60.1 24.6zM510.9 799.7c-194 0-351.9-157.9-351.9-351.9s157.9-351.9 351.9-351.9 351.9 157.9 351.9 351.9-157.8 351.9-351.9 351.9zM510.9 140c-169.7 0-307.8 138.1-307.8 307.8s138.1 307.8 307.8 307.8c169.7 0 307.8-138.1 307.8-307.8s-138-307.8-307.8-307.8z" />
<glyph unicode="&#xe917;" glyph-name="Mobilebanking_sm" d="M713.7 83.1h-405.1c-13.3 0-24 10.8-24 24v682.3c0 13.3 10.8 24 24 24h405.1c13.3 0 24-10.8 24-24v-682.3c0-13.2-10.7-24-24-24zM332.7 131.2h357v634.2h-357v-634.2zM545.3 215.6c0-18.9-15.3-34.2-34.1-34.2-18.9 0-34.2 15.3-34.2 34.2 0 18.8 15.3 34.1 34.2 34.1 18.8 0 34.1-15.3 34.1-34.1zM627.5 282.9h-232.6c-13.3 0-24 10.8-24 24v372.2c0 13.3 10.8 24 24 24h232.6c13.3 0 24-10.8 24-24v-372.1c0-13.3-10.8-24.1-24-24.1zM418.9 331h184.5v324.1h-184.5v-324.1z" />
<glyph unicode="&#xe918;" glyph-name="Mobilebanking" d="M703.3 109h-384.4c-8.2 0-14.8 6.6-14.8 14.8v647.4c0 8.1 6.6 14.8 14.8 14.8h384.4c8.2 0 14.8-6.6 14.8-14.8v-647.4c0-8.2-6.6-14.8-14.8-14.8zM333.7 138.5h354.9v618h-354.9v-618zM534.4 194c0-12.9-10.4-23.3-23.3-23.3s-23.3 10.4-23.3 23.3c0 12.9 10.4 23.3 23.3 23.3 12.9-0.1 23.3-10.5 23.3-23.3zM637.6 249.9h-252.9c-8.2 0-14.8 6.6-14.8 14.8v437.4c0 8.1 6.6 14.8 14.8 14.8h252.9c8.2 0 14.8-6.6 14.8-14.8v-437.4c-0.1-8.1-6.7-14.8-14.8-14.8zM399.4 279.5h223.4v407.9h-223.4v-407.9z" />
<glyph unicode="&#xe919;" glyph-name="globalbanking_sm" d="M833.8 587.5c-55.7 128.5-182.2 211.6-322.3 211.6-48 0-94.9-9.7-139.3-29-86-37.2-152.4-105.7-186.9-192.9s-33-182.5 4.3-268.6c55.7-128.5 182.2-211.6 322.3-211.6 48 0 94.8 9.7 139.3 29 177.5 76.9 259.4 283.9 182.6 461.5zM511.5 755.1c62.6 0 122.1-19.1 171.8-52.6-14.6-22.2-29.8-42.7-45.7-61.4-36.6 45.7-81.2 84.1-132.3 113.7 2.1 0 4.2 0.3 6.2 0.3zM518.6 491.4c40.8 19.9 78.9 46.7 114.1 80.4 11.5-18.5 22.1-37.6 30.9-57.9 12.5-28.8 21.4-58.5 27.4-88.5-34.5-28.8-72.5-52.7-112.9-71.8l-59.5 137.8zM537.8 336.5c-42-15.8-86-26.3-130.8-30.8-17 24.2-31.8 50.3-43.8 78.1-9.2 21.2-16.1 42.9-21.8 64.8 48.3 1.5 94 10 136.8 25.5l59.6-137.6zM429.7 743.5c71.1-29.3 131.7-76 177.7-135.2-32.8-32.4-68.1-58-106.1-76.9l-89.5 206.6c6 2.1 11.9 3.9 17.9 5.5zM356.1 712.4c5 2.9 10.1 5.7 15.3 8.3l89.4-206.4c-40-14.2-82.8-21.5-128.3-22.1-11.3 73.6-3.5 148.9 23.6 220.2zM226.3 561c16 40.5 40.1 76.1 70.2 105.8-13.5-57.1-16.6-115.5-8.9-173-25 2-50.8 5.8-77.4 11.6 3.6 18.8 8.9 37.4 16.1 55.6zM237.5 316.9c-1 0.2-2.1 0-3.1 0.1-1.4 3-3 6-4.3 9.1-18.8 43.4-26.8 89.4-24.8 135.3 31.1-6.5 61.3-10.6 90.5-12.3 6.5-28.1 15.3-55.8 27-82.8 9.6-22.2 21.2-43.2 33.8-63.3-39.7-0.2-79.7 4.3-119.1 13.9zM511.9 141c-99.3 0-190.8 47.7-247.8 125.7 30.4-5.2 60.9-7.8 91.3-7.8 10.5 0 20.9 0.4 31.4 1 37.6-47.8 83.8-87.7 137-118.3-4.1-0.1-8-0.6-11.9-0.6zM598 153.7c-61.7 25.3-115.5 63.6-158.8 111.8 39.7 6 78.6 16.3 116 30.5l59.2-136.8c-5.4-2-10.8-3.9-16.4-5.5zM671 186.1c-5.3-3.2-10.7-6.3-16.2-9.2l-59 136.2c36 16.9 70.2 37.8 102.1 61.9 5.2-63.5-3.7-127.7-26.9-188.9zM704.1 531.3c-11.2 25.8-24.8 50.1-39.9 73.2 18.9 21.4 36.9 44.9 53.9 70.6 31.6-28.8 57.6-64.3 75.2-105.1 2.7-6.2 4.7-12.4 7-18.6-0.5-0.6-1.1-1-1.5-1.6-20.3-33-44.2-63-70.7-90-6.3 24.2-13.9 48.2-24 71.5zM731 233.5c13.4 57.8 15.9 116.9 7.5 175.1 28.1 25.7 53.8 54.3 76.3 85.8 14.6-95.7-17.1-192.5-83.8-260.9z" />
<glyph unicode="&#xe91a;" glyph-name="fraudprotection_sm" d="M510.5 79.3c-3.3 0-6.6 0.7-9.7 2.2-31.5 11.7-60 30.2-78.8 43.2-110.1 76.2-187.7 198.4-218.6 344-8.1 38.1-13.2 78.2-15.3 119.2-0.7 13 0.1 50.3 0.1 50.3 0.2 7.7 4 14.7 10.4 18.9 0 0 25 16.3 33.7 21 42.6 22.8 86.7 43.8 129.4 64.1 45.4 21.7 92.4 44 137.1 68.4 1.1 0.7 2.3 1.3 3.6 1.8 0.1 0 0.1 0 0.1 0 6.2 2.4 13.2 2 19.3-1.3 50.7-27.7 103.9-53.2 155.4-77.9 24.2-11.6 48.5-23.2 72.6-35.1 21.1-10.4 70.9-37.9 70.9-37.9 7.2-4 11.8-11.5 11.9-19.8 0-2.2 0.9-54-0.9-76.7-6.8-83.1-25.9-159.3-56.8-226.4-25.3-55-58.4-104.3-98.6-146.4-24.5-25.7-51.8-45.8-78.2-65.3l-16.2-12c-24.7-15.5-44.3-25.5-63.2-32.5-2.7-1.3-5.4-1.8-8.2-1.8zM234.1 624.9c-0.2-11.2-0.3-27.3 0.1-34.7 2-38.6 6.8-76.2 14.4-111.9 28.4-134.1 99.4-246.2 199.7-315.7 15.4-10.6 38-25.4 62.3-35.3 13.6 5.7 28.1 13.5 45.1 24.1l14.9 11.1c25.9 19.1 50.4 37.2 72.2 60 36.7 38.5 67 83.5 90.1 133.8 28.6 62.3 46.3 133.2 52.7 210.9 1.1 13.8 1.1 42 0.9 58.7-15.7 8.6-43.1 23.5-57.2 30.5-24.1 11.9-48.3 23.5-72.5 35.1-48.2 23.1-97.9 47-146.1 72.8-42.6-22.8-86.6-43.7-129.1-64-42.2-20.1-85.8-40.9-127.4-63.2-4.5-2.2-13.2-7.7-20.1-12.2zM623.6 569.8h-226.8c-12.8 0-23.1 10.4-23.1 23.1s10.3 23.1 23.1 23.1h226.8c12.8 0 23.1-10.4 23.1-23.1 0-12.8-10.3-23.1-23.1-23.1zM623.6 460.8h-226.8c-12.8 0-23.1 10.4-23.1 23.1s10.3 23.1 23.1 23.1h226.8c12.8 0 23.1-10.4 23.1-23.1s-10.3-23.1-23.1-23.1z" />
<glyph unicode="&#xe91b;" glyph-name="creditcard_med" d="M809.4 693.8h-597c-44.2 0-80.1-36-80.1-80.1v-332.4c0-44.2 35.9-80.1 80.1-80.1h596.9c44.2 0 80.1 36 80.1 80.1v332.4c0.1 44.2-35.8 80.1-80 80.1zM858.3 589.5v-27.9h-694.8v27.9h694.8zM212.4 662.6h596.9c24.6 0 44.8-18.3 48.2-42h-693.3c3.4 23.7 23.6 42 48.2 42zM809.4 232.4h-597c-27 0-48.9 21.9-48.9 48.9v249h694.8v-249c0-26.9-21.9-48.9-48.9-48.9zM797.3 464.7h-386.4c-8.6 0-15.6-7-15.6-15.6v-54.1c0-8.6 7-15.6 15.6-15.6h386.4c8.6 0 15.6 7 15.6 15.6v54.1c0 8.6-7 15.6-15.6 15.6zM781.7 410.7h-355.2v22.9h355.2v-22.9zM300.7 472.3h-33.4c-26.4 0-47.9-21.5-47.9-47.9s21.5-47.9 47.9-47.9h33.4c26.4 0 47.9 21.5 47.9 47.9-0.1 26.4-21.6 47.9-47.9 47.9zM300.7 407.7h-33.4c-9.2 0-16.7 7.5-16.7 16.7s7.5 16.7 16.7 16.7h33.4c9.2 0 16.7-7.5 16.7-16.7-0.1-9.2-7.6-16.7-16.7-16.7z" />
<glyph unicode="&#xe91c;" glyph-name="creditcard_sm" d="M894.4 741.6h-759.8c-13.4 0-24.2-10.9-24.2-24.2v-541.3c0-13.4 10.8-24.2 24.2-24.2h759.8c13.4 0 24.2 10.9 24.2 24.2v541.3c0 13.3-10.9 24.2-24.2 24.2zM870.2 693.2v-116.5h-711.4v116.5h711.4zM158.8 200.3v313.9h711.4v-313.9h-711.4z" />
<glyph unicode="&#xe91d;" glyph-name="commercialservices_med" d="M741.2 503.8c51.9 0 94.2 42.5 94.2 94.7 0 52.1-42.3 94.6-94.2 94.6-51.8 0-94-42.4-94-94.6-0.1-52.2 42.1-94.7 94-94.7zM741.2 663.3c35.5 0 64.4-29.1 64.4-64.8 0-35.8-28.9-64.9-64.4-64.9-35.4 0-64.2 29.1-64.2 64.9-0.1 35.8 28.7 64.8 64.2 64.8zM1009.1 318.9h-114.9c-4 108.7-29.8 157.6-153 157.6-123 0-148.9-48.9-152.9-157.6h-52.1c-25.7 69.6-82.1 100.7-203.9 100.7-121.7 0-178-31.1-203.7-100.7h-113c-8.2 0-14.9-6.7-14.9-14.9s6.7-14.9 14.9-14.9h104.2c-7.6-33.4-10.8-73.5-11.7-121.4l-0.3-15.2h449.1l-0.3 15.2c-0.9 47.9-4.1 88-11.7 121.4h464.2c8.2 0 14.9 6.7 14.9 14.9s-6.7 14.9-14.9 14.9zM618 319.5c3.5 98.1 23.2 127.2 123.1 127.2 100 0 119.8-29.1 123.3-127.2h-246.4zM332.2 747.7c-82.3 0-149.3-67.4-149.3-150.3 0-83 67-150.5 149.3-150.5 82.5 0 149.6 67.5 149.6 150.5 0.1 82.9-67.1 150.3-149.6 150.3z" />
<glyph unicode="&#xe91e;" glyph-name="commercialservices_sm" d="M756.1 490.1c58.4 0 105.9 47.7 105.9 106.5 0 58.6-47.5 106.3-105.9 106.3-58.3 0-105.7-47.7-105.7-106.3 0-58.7 47.4-106.5 105.7-106.5zM756.1 656.8c33 0 59.9-27 59.9-60.2 0-33.3-26.9-60.4-59.9-60.4-32.9 0-59.7 27.1-59.7 60.4 0.1 33.2 26.8 60.2 59.7 60.2zM986.3 293.2h-63.1c-5.1 112-35.6 165.5-167.1 165.5-131.4 0-161.8-53.5-166.9-165.5h-53.4c-23 76.9-77.2 108-203 108-125.6 0-179.7-31.1-202.7-108h-95.7c-12.7 0-23-10.3-23-23s10.3-23 23-23h86.1c-3.8-27.2-5.6-58.2-6.3-93.8h437.5c-0.7 35.6-2.5 66.7-6.3 93.8h441c12.7 0 23 10.3 23 23-0.1 12.7-10.4 23-23.1 23zM756.1 412.7c97.3 0 117-24.4 121.1-118h-242c4.1 93.5 23.7 118 120.9 118zM332.8 461c77.7 0 140.8 63.5 140.8 141.7 0 77.9-63 141.4-140.8 141.4-77.4 0-140.4-63.5-140.4-141.4-0.1-78.2 62.9-141.7 140.4-141.7z" />
<glyph unicode="&#xe91f;" glyph-name="checking_sm" d="M797.4 268.1h-569c-12.2 0-22 9.9-22 22.1v312.9c0 12.2 9.9 22.1 22 22.1h569c12.2 0 22-9.9 22-22.1v-312.9c0-12.2-9.8-22.1-22-22.1zM250.5 312.2h524.9v268.9h-524.9v-268.9zM723.3 441.1h-420.7c-12.2 0-22 9.9-22 22.1s9.9 22.1 22 22.1h420.7c12.2 0 22-9.9 22-22.1s-9.8-22.1-22-22.1zM723.3 353.1h-156.7c-12.2 0-22 9.9-22 22.1s9.9 22.1 22 22.1h156.7c12.2 0 22-9.9 22-22.1s-9.8-22.1-22-22.1z" />
<glyph unicode="&#xe920;" glyph-name="Chasepay_med" d="M594.3 214.5c-13.1 0-23.7-10.6-23.7-23.7s10.6-23.7 23.7-23.7c13.1 0 23.6 10.6 23.6 23.7s-10.6 23.7-23.6 23.7zM789.6 792.4h-390.6c-8.3 0-15-6.7-15-15v-142.8h-151.2c-8.3 0-15-6.7-15-15v-260.8c0-8.3 6.7-15 15-15h151.2v-224.3c0-8.3 6.7-15 15-15h390.6c8.3 0 15 6.7 15 15v657.9c0 8.3-6.8 15-15 15zM583.9 604.7v-52.9h-336.1v52.9h336.1zM480.8 343.9h118.1c8.3 0 15 6.7 15 15v260.8c0 8.3-6.7 15-15 15h-118.1v57.6h227v-414.5h-227v66.1zM247.8 521.8h336.1v-148h-336.1v148zM774.6 134.5h-360.6v209.4h36.8v-81.1c0-8.3 6.7-15 15-15h257c8.3 0 15 6.7 15 15v444.4c0 8.3-6.7 15-15 15h-257c-8.3 0-15-6.7-15-15v-72.6h-36.8v127.8h360.6v-627.9z" />
<glyph unicode="&#xe921;" glyph-name="Chasepay_sm" d="M574.2 274.6c-16.5 0-29.8-13.3-29.8-29.8s13.3-29.8 29.8-29.8c16.4 0 29.8 13.3 29.8 29.8s-13.4 29.8-29.8 29.8zM754 766.6h-353.5c-11.6 0-21-9.4-21-21v-100.8h-107.6c-11.6 0-21-9.4-21-21v-240.8c0-11.6 9.4-21 21-21h107.6v-211.9c0-11.6 9.4-21 21-21h353.5c11.6 0 21 9.4 21 21v595.5c0 11.6-9.4 21-21 21zM588.9 602.9v-28.4h-296v28.4h296zM292.8 520.3h296v-116.3h-296v116.3zM733 171.1h-311.6v191h188.4c11.6 0 21 9.4 21 21v240.7c0 11.6-9.4 21-21 21h-188.4v79.9h311.6v-553.6z" />
<glyph unicode="&#xe922;" glyph-name="businessservices_med" d="M741.2 503.8c51.9 0 94.2 42.5 94.2 94.7 0 52.1-42.3 94.6-94.2 94.6-51.8 0-94-42.4-94-94.6-0.1-52.2 42.1-94.7 94-94.7zM741.2 663.3c35.5 0 64.4-29.1 64.4-64.8 0-35.8-28.9-64.9-64.4-64.9-35.4 0-64.2 29.1-64.2 64.9-0.1 35.8 28.7 64.8 64.2 64.8zM1009.1 318.9h-114.9c-4 108.7-29.8 157.6-153 157.6-123 0-148.9-48.9-152.9-157.6h-52.1c-25.7 69.6-82.1 100.7-203.9 100.7-121.7 0-178-31.1-203.7-100.7h-113c-8.2 0-14.9-6.7-14.9-14.9s6.7-14.9 14.9-14.9h104.2c-7.6-33.4-10.8-73.5-11.7-121.4l-0.3-15.2h449.1l-0.3 15.2c-0.9 47.9-4.1 88-11.7 121.4h464.2c8.2 0 14.9 6.7 14.9 14.9s-6.7 14.9-14.9 14.9zM618 319.5c3.5 98.1 23.2 127.2 123.1 127.2 100 0 119.8-29.1 123.3-127.2h-246.4zM332.2 747.7c-82.3 0-149.3-67.4-149.3-150.3 0-83 67-150.5 149.3-150.5 82.5 0 149.6 67.5 149.6 150.5 0.1 82.9-67.1 150.3-149.6 150.3z" />
<glyph unicode="&#xe923;" glyph-name="businessservices_sm" d="M756.1 490.1c58.4 0 105.9 47.7 105.9 106.5 0 58.6-47.5 106.3-105.9 106.3-58.3 0-105.7-47.7-105.7-106.3 0-58.7 47.4-106.5 105.7-106.5zM756.1 656.8c33 0 59.9-27 59.9-60.2 0-33.3-26.9-60.4-59.9-60.4-32.9 0-59.7 27.1-59.7 60.4 0.1 33.2 26.8 60.2 59.7 60.2zM986.3 293.2h-63.1c-5.1 112-35.6 165.5-167.1 165.5-131.4 0-161.8-53.5-166.9-165.5h-53.4c-23 76.9-77.2 108-203 108-125.6 0-179.7-31.1-202.7-108h-95.7c-12.7 0-23-10.3-23-23s10.3-23 23-23h86.1c-3.8-27.2-5.6-58.2-6.3-93.8h437.5c-0.7 35.6-2.5 66.7-6.3 93.8h441c12.7 0 23 10.3 23 23-0.1 12.7-10.4 23-23.1 23zM756.1 412.7c97.3 0 117-24.4 121.1-118h-242c4.1 93.5 23.7 118 120.9 118zM332.8 461c77.7 0 140.8 63.5 140.8 141.7 0 77.9-63 141.4-140.8 141.4-77.4 0-140.4-63.5-140.4-141.4-0.1-78.2 62.9-141.7 140.4-141.7z" />
<glyph unicode="&#xe924;" glyph-name="businessresources_med" d="M693.7 181.2h-349.5c-8.4 0-15.3 6.8-15.3 15.3 0 8.4 6.8 15.3 15.3 15.3h349.5c8.4 0 15.3-6.8 15.3-15.3-0.1-8.5-6.9-15.3-15.3-15.3zM781.4 795.6h-541.3c-8.4 0-15.3-6.8-15.3-15.3v-664.8c0-8.4 6.8-15.3 15.3-15.3h541.4c8.4 0 15.3 6.8 15.3 15.3v664.8c-0.1 8.5-6.9 15.3-15.4 15.3zM766.2 765.1v-32.5h-510.9v32.5h510.9zM255.3 130.7v571.3h510.9v-571.3h-510.9zM344.6 310.5h155.2c8.4 0 15.3 6.8 15.3 15.3v130c0 8.4-6.8 15.3-15.3 15.3h-155.2c-8.4 0-15.3-6.8-15.3-15.3v-130.1c0.1-8.4 6.9-15.2 15.3-15.2zM359.9 440.6h124.7v-99.6h-124.7v99.6zM693.7 270h-349.5c-8.4 0-15.3-6.8-15.3-15.3 0-8.4 6.8-15.3 15.3-15.3h349.5c8.4 0 15.3 6.8 15.3 15.3-0.1 8.5-6.9 15.3-15.3 15.3zM549.4 441.3h144.1c8.4 0 15.3 6.8 15.3 15.3 0 8.4-6.8 15.3-15.3 15.3h-144.1c-8.4 0-15.3-6.8-15.3-15.3s6.8-15.3 15.3-15.3zM549.4 375.9h144.1c8.4 0 15.3 6.8 15.3 15.3 0 8.4-6.8 15.3-15.3 15.3h-144.1c-8.4 0-15.3-6.8-15.3-15.3s6.8-15.3 15.3-15.3zM549.4 310.5h144.1c8.4 0 15.3 6.8 15.3 15.3 0 8.4-6.8 15.3-15.3 15.3h-144.1c-8.4 0-15.3-6.8-15.3-15.3s6.8-15.3 15.3-15.3zM693.8 644.7h-349.5c-8.4 0-15.3-6.8-15.3-15.3v-77.4c0-8.4 6.8-15.3 15.3-15.3h349.5c8.4 0 15.3 6.8 15.3 15.3v77.4c-0.1 8.5-6.9 15.3-15.3 15.3zM678.5 567.3h-319v46.9h319v-46.9z" />
</font>
</defs>
</svg>
