<?xml version="1.0" standalone="no"?>
<!DOCTYPE svg PUBLIC "-//W3C//DTD SVG 1.1//EN" "http://www.w3.org/Graphics/SVG/1.1/DTD/svg11.dtd">
<svg xmlns="http://www.w3.org/2000/svg">
<defs >
<font id="IstokWeb" horiz-adv-x="1176" ><font-face
    font-family="Istok Web"
    units-per-em="2048"
    panose-1="2 15 7 3 3 4 3 2 2 4"
    ascent="2061"
    descent="-887"
    alphabetic="0" />
<glyph unicode=" " glyph-name="space" horiz-adv-x="700" />
<glyph unicode="!" glyph-name="exclam" horiz-adv-x="668" d="M184 1359Q182 1434 254 1434H414Q486 1434 484 1359L457 485Q455 420 392 420H276Q213 420 211 485L184 1359ZM258 0Q188 0 188 75V209Q188 284 258 284H410Q480 284 480 209V75Q480 0 410 0H258Z" />
<glyph unicode="&quot;" glyph-name="quotedbl" horiz-adv-x="976" d="M388 1404Q385 1469 439 1469H613Q667 1469 664 1404L640 884Q637 824 590 824H462Q415 824 412 884L388 1404ZM568 1404Q565 1469 619 1469H793Q847 1469 844 1404L820 884Q817 824 770 824H642Q595
824 592 884L568 1404Z" />
<glyph unicode="#" glyph-name="numbersign" horiz-adv-x="1416" d="M129 344Q69 344 77 394L92 474Q101 524 160 524H341L406 898H226Q167 898 175 948L189 1028Q198 1078 258 1078H438L488 1362Q499 1422 549 1422H635Q685 1422 674 1362L624 1078H922L972 1362Q983
1422 1033 1422H1119Q1169 1422 1158 1362L1108 1078H1288Q1347 1078 1339 1028L1325 948Q1316 898 1256 898H1076L1011 524H1190Q1250 524 1242 474L1227 394Q1218 344 1159 344H979L929 60Q918 0 868 0H782Q732 0 743 60L793 344H495L445 60Q434 0 384 0H298Q248
0 259 60L309 344H129ZM527 524H825L890 898H592L527 524Z" />
<glyph unicode="$" glyph-name="dollar" horiz-adv-x="1200" d="M136 84Q64 149 100 200L169 298Q203 346 273 288Q327 243 401 220T530 189V612Q451 641 361 691Q315 717 261 772T173 901T140 1082Q140 1224 220 1315T370 1426T530 1454V1556Q530 1616 580 1616H660Q710
1616 710 1556V1454Q782 1445 860 1414T987 1347Q1045 1304 1014 1257L946 1153Q910 1099 860 1145Q822 1180 782 1197T710 1223V833Q793 804 880 759Q944 726 990 679T1067 562T1099 373Q1099 240 1041 151T903 21T710 -32V-150Q710 -210 660 -210H580Q530 -210
530 -150V-32Q428 -27 315 -2T136 84ZM396 1084Q396 1012 426 975T488 923Q505 915 530 905V1229Q475 1219 436 1181T396 1084ZM710 192Q747 203 793 237T839 366Q839 431 819 468T744 532Q728 540 710 548V192Z" />
<glyph unicode="%" glyph-name="percent" horiz-adv-x="1802" d="M95 1122Q95 1302 173 1406T412 1510Q572 1510 650 1406T729 1122Q729 942 651 838T412 734Q252 734 174 838T95 1122ZM297 1122Q297 972 327 921T412 869Q467 869 497 920T527 1122Q527 1272 497
1323T412 1375Q357 1375 327 1324T297 1122ZM321 -29Q280 0 314 49L1335 1507Q1370 1557 1411 1528L1481 1479Q1522 1450 1488 1401L467 -57Q432 -107 391 -78L321 -29ZM1073 328Q1073 508 1151 612T1390 716Q1550 716 1628 612T1707 328Q1707 148 1629 44T1390
-60Q1230 -60 1152 44T1073 328ZM1275 328Q1275 178 1305 127T1390 75Q1445 75 1475 126T1505 328Q1505 478 1475 529T1390 581Q1335 581 1305 530T1275 328Z" />
<glyph unicode="&amp;" glyph-name="ampersand" horiz-adv-x="1440" d="M112 316Q112 464 187 577T443 820Q372 900 321 970T270 1164Q270 1284 364 1376T676 1468Q810 1468 925 1400T1041 1165Q1041 1041 989 954T815 774L1055 460Q1100 502 1137 556T1187 640Q1215
705 1274 670L1380 606Q1410 590 1386 531Q1358 462 1315 400T1197 273L1353 66Q1403 0 1322 0H1137Q1063 0 1020 59L984 108Q884 28 777 -3T529 -34Q348 -34 230 50T112 316ZM412 328Q412 261 459 223T570 184Q654 184 715 206T846 288L590 624Q494 546 453 486T412
328ZM540 1153Q540 1083 577 1040T660 951Q723 1008 747 1038T771 1135Q771 1185 740 1211T654 1238Q597 1238 569 1206T540 1153Z" />
<glyph unicode="&apos;" glyph-name="quotesingle" horiz-adv-x="560" d="M142 1404Q139 1469 193 1469H367Q421 1469 418 1404L394 884Q391 824 344 824H216Q169 824 166 884L142 1404Z" />
<glyph unicode="(" glyph-name="parenleft" horiz-adv-x="740" d="M115 544Q115 914 243 1153T499 1514Q551 1564 583 1538L667 1471Q701 1444 667 1399Q588 1296 502 1108T415 544Q415 169 501 -19T667 -311Q701 -356 667 -383L583 -450Q551 -476 499 -426Q372
-304 244 -65T115 544Z" />
<glyph unicode=")" glyph-name="parenright" horiz-adv-x="740" d="M73 -383Q39 -356 73 -311Q152 -208 238 -20T325 544Q325 919 239 1107T73 1399Q39 1444 73 1471L157 1538Q189 1564 241 1514Q368 1392 496 1153T625 544Q625 174 497 -65T241 -426Q189 -476
157 -450L73 -383Z" />
<glyph unicode="*" glyph-name="asterisk" horiz-adv-x="960" d="M348 1058L152 1142Q66 1179 108 1253L126 1284Q168 1356 243 1300L414 1172L389 1385Q378 1478 462 1478H498Q582 1478 571 1385L546 1172L717 1300Q793 1357 835 1283L853 1252Q895 1179 808
1142L612 1058L809 973Q895 936 853 864L835 833Q793 760 718 816L546 944L571 732Q582 638 497 638H462Q378 638 389 732L414 944L243 816Q167 759 125 832L107 863Q64 936 152 974L348 1058Z" />
<glyph unicode="+" glyph-name="plus" horiz-adv-x="1280" d="M135 632Q75 632 75 682V768Q75 818 135 818H547V1230Q547 1290 597 1290H683Q733 1290 733 1230V818H1145Q1205 818 1205 768V682Q1205 632 1145 632H733V220Q733 160 683 160H597Q547 160 547 220V632H135Z" />
<glyph unicode="," glyph-name="comma" horiz-adv-x="668" d="M256 0Q186 0 186 75V209Q186 284 256 284H412Q482 284 482 209V75Q482 -54 465 -141T378 -283Q327 -322 298 -291L260 -250Q224 -212 271 -175Q303 -150 314 -110T325 0H256Z" />
<glyph unicode="-" glyph-name="hyphen" horiz-adv-x="700" d="M113 446Q53 446 53 496V610Q53 660 113 660H587Q647 660 647 610V496Q647 446 587 446H113Z" />
<glyph unicode="." glyph-name="period" horiz-adv-x="668" d="M258 0Q188 0 188 75V209Q188 284 258 284H410Q480 284 480 209V75Q480 0 410 0H258Z" />
<glyph unicode="/" glyph-name="slash" horiz-adv-x="856" d="M34 -378Q-13 -360 9 -304L673 1426Q695 1482 741 1464L822 1433Q869 1415 847 1359L183 -371Q161 -427 115 -409L34 -378Z" />
<glyph unicode="0" glyph-name="zero" horiz-adv-x="1200" d="M88 711Q88 1116 214 1286T600 1456Q860 1456 986 1286T1112 711Q1112 306 986 136T600 -34Q340 -34 214 136T88 711ZM384 711Q384 526 414 355T600 184Q755 184 785 355T816 711Q816 896 786 1067T600
1238Q445 1238 415 1067T384 711Z" />
<glyph unicode="1" glyph-name="one" horiz-adv-x="907" d="M155 1138Q129 1187 190 1214Q248 1240 311 1287T414 1384Q459 1440 500 1440H659Q719 1440 719 1380V60Q719 0 659 0H499Q439 0 439 60V1011Q439 1051 443 1091H439Q408 1052 371 1024T296 980Q249
960 225 1006L155 1138Z" />
<glyph unicode="2" glyph-name="two" horiz-adv-x="1200" d="M163 0Q88 0 88 65V113Q88 165 136 216L435 531Q570 674 682 785T794 1011Q794 1125 738 1178T594 1232Q456 1232 402 1168T324 1031Q301 960 240 980L139 1014Q90 1031 111 1108Q150 1251 270 1353T626
1456Q872 1456 983 1330T1094 1055Q1094 861 932 715T638 429L468 250V244Q528 248 568 248H1035Q1110 248 1110 183V65Q1110 0 1035 0H163Z" />
<glyph unicode="3" glyph-name="three" horiz-adv-x="1200" d="M100 102Q61 135 94 196L140 280Q173 341 247 289Q309 245 387 218T561 190Q693 190 750 261T807 422Q807 513 740 585T549 658H472Q407 658 407 711V821Q407 876 472 876H532Q624 876 694 933T765
1076Q765 1143 719 1187T567 1232Q468 1232 396 1203T282 1133Q222 1074 179 1138L121 1223Q88 1271 141 1321Q213 1390 327 1423T550 1456Q807 1456 932 1354T1057 1103Q1057 993 971 903T789 778V774Q903 746 1005 652T1107 417Q1107 198 969 82T548 -34Q429
-34 302 2T100 102Z" />
<glyph unicode="4" glyph-name="four" horiz-adv-x="1200" d="M127 312Q62 312 62 377V509Q62 566 92 608L646 1388Q683 1440 739 1440H886Q952 1440 952 1375V560H1073Q1138 560 1138 495V377Q1138 312 1074 312H952V65Q952 0 887 0H737Q672 0 672 65V312H127ZM341
560H672V947Q672 987 676 1027H672L341 560Z" />
<glyph unicode="5" glyph-name="five" horiz-adv-x="1200" d="M101 101Q68 145 92 177L162 273Q204 331 264 276Q300 243 375 217T525 190Q639 190 717 254T796 441Q796 558 746 630T625 702Q564 702 513 693T407 635Q369 602 315 602H206Q141 602 141 667V1357Q141
1422 206 1422H926Q991 1422 991 1357V1239Q991 1174 926 1174H421V929Q421 889 417 849H423Q476 895 541 910T680 926Q855 926 975 807T1096 437Q1096 207 943 87T578 -34Q402 -34 274 4T101 101Z" />
<glyph unicode="6" glyph-name="six" horiz-adv-x="1200" d="M88 671Q88 1122 249 1289T657 1456Q753 1456 848 1429T994 1356Q1042 1313 1015 1272L949 1173Q917 1124 856 1173Q826 1197 769 1214T648 1232Q543 1232 455 1134T367 799H371Q416 867 496 896T691
926Q900 926 1007 789T1114 448Q1114 228 989 97T607 -34Q333 -34 211 149T88 671ZM416 443Q416 321 466 256T612 190Q714 190 764 245T814 450Q814 582 764 642T624 702Q525 702 471 621T416 443Z" />
<glyph unicode="7" glyph-name="seven" horiz-adv-x="1112" d="M148 1174Q83 1174 83 1239V1357Q83 1422 148 1422H964Q1029 1422 1029 1357V1244Q1029 1193 979 1137Q774 906 692 676T610 121V59Q610 -6 545 -6H395Q330 -6 330 59V86Q330 447 449 693T767 1174V1178Q727
1174 687 1174H148Z" />
<glyph unicode="8" glyph-name="eight" horiz-adv-x="1200" d="M86 383Q86 555 191 650T373 767V772Q288 799 208 878T127 1088Q127 1244 253 1350T600 1456Q820 1456 946 1350T1073 1088Q1073 958 993 879T827 772V767Q903 746 1008 651T1114 383Q1114 198 994
82T600 -34Q327 -34 207 82T86 383ZM386 413Q386 300 436 245T600 190Q714 190 764 245T814 413Q814 499 760 571T600 644Q495 644 441 572T386 413ZM419 1058Q419 978 464 932T600 886Q690 886 735 932T781 1058Q781 1138 734 1185T600 1232Q514 1232 467 1185T419
1058Z" />
<glyph unicode="9" glyph-name="nine" horiz-adv-x="1200" d="M86 974Q86 1194 211 1325T593 1456Q867 1456 989 1273T1112 751Q1112 300 951 133T543 -34Q447 -34 352 -7T206 66Q158 109 185 150L251 249Q283 298 344 249Q374 225 431 208T552 190Q657 190 745
288T833 623H829Q784 555 704 526T509 496Q300 496 193 633T86 974ZM386 972Q386 840 436 780T576 720Q675 720 729 801T784 979Q784 1101 734 1166T588 1232Q486 1232 436 1177T386 972Z" />
<glyph unicode=":" glyph-name="colon" horiz-adv-x="668" d="M258 0Q188 0 188 75V209Q188 284 258 284H410Q480 284 480 209V75Q480 0 410 0H258ZM258 766Q188 766 188 841V975Q188 1050 258 1050H410Q480 1050 480 975V841Q480 766 410 766H258Z" />
<glyph unicode=";" glyph-name="semicolon" horiz-adv-x="668" d="M258 766Q188 766 188 841V975Q188 1050 258 1050H410Q480 1050 480 975V841Q480 766 410 766H258ZM256 0Q186 0 186 75V209Q186 284 256 284H412Q482 284 482 209V75Q482 -54 465 -141T378 -283Q327
-322 298 -291L260 -250Q224 -212 271 -175Q303 -150 314 -110T325 0H256Z" />
<glyph unicode="&lt;" glyph-name="less" horiz-adv-x="1280" d="M128 634Q88 655 88 689V781Q88 815 128 836L1069 1337Q1122 1365 1146 1321L1183 1250Q1206 1206 1154 1178L320 736V734L1154 292Q1206 264 1183 220L1146 149Q1122 105 1069 133L128 634Z" />
<glyph unicode="=" glyph-name="equal" horiz-adv-x="1280" d="M135 462Q75 462 75 512V598Q75 648 135 648H1145Q1205 648 1205 598V512Q1205 462 1145 462H135ZM135 802Q75 802 75 852V938Q75 988 135 988H1145Q1205 988 1205 938V852Q1205 802 1145 802H135Z" />
<glyph unicode="&gt;" glyph-name="greater" horiz-adv-x="1280" d="M97 220Q74 264 126 292L960 734V736L126 1178Q74 1206 97 1250L134 1321Q158 1365 211 1337L1152 836Q1192 815 1192 781V689Q1192 655 1152 634L211 133Q158 105 134 149L97 220Z" />
<glyph unicode="?" glyph-name="question" horiz-adv-x="1106" d="M114 1158Q62 1191 101 1260Q142 1332 256 1400T544 1468Q781 1468 893 1361T1006 1068Q1006 927 841 764T675 494V478Q675 413 610 413H460Q395 413 395 478V508Q395 672 550 834T706 1074Q706
1155 669 1199T534 1244Q448 1244 395 1205T308 1110Q275 1055 219 1091L114 1158ZM459 0Q389 0 389 75V209Q389 284 459 284H611Q681 284 681 209V75Q681 0 611 0H459Z" />
<glyph unicode="@" glyph-name="at" horiz-adv-x="2074" d="M112 564Q112 964 375 1232T1063 1500Q1451 1500 1706 1288T1962 700Q1962 406 1819 253T1439 100Q1337 100 1275 133T1189 271H1187Q1126 194 1058 147T872 100Q755 100 660 188T564 487Q564 714 715
878T1075 1043Q1215 1043 1266 897H1270L1284 958Q1295 1006 1343 1006H1482Q1533 1006 1521 954L1401 422Q1384 347 1392 314T1450 280Q1595 280 1684 378T1774 661Q1774 972 1587 1145T1063 1318Q731 1318 516 1105T300 570Q300 244 513 34T1061 -176Q1211 -176
1324 -153T1582 -50Q1627 -25 1641 -47L1703 -140Q1730 -181 1687 -206Q1539 -294 1364 -326T1050 -358Q647 -358 380 -95T112 564ZM806 433Q806 366 838 323T924 280Q1017 280 1099 376T1196 582Q1205 648 1205 704Q1205 768 1169 815T1079 863Q987 863 897 757T806
433Z" />
<glyph unicode="A" glyph-name="A" horiz-adv-x="1394" d="M90 0Q18 0 43 66L533 1353Q564 1434 627 1434H767Q830 1434 861 1353L1351 66Q1376 0 1304 0H1145Q1079 0 1053 69L951 338H443L341 69Q315 0 249 0H90ZM536 586H858L735 904Q713 960 709 985T699 1061H695Q690
1011 686 986T659 904L536 586Z" />
<glyph unicode="B" glyph-name="B" horiz-adv-x="1379" d="M240 0Q160 0 160 75V1359Q160 1434 240 1434H580Q964 1434 1098 1340T1233 1049Q1233 912 1133 837T938 750V747Q1029 741 1152 655T1275 412Q1275 228 1125 114T630 0H240ZM452 244H598Q810 244 886
281T963 431Q963 537 875 577T598 618H452V244ZM452 854H583Q712 854 824 899T937 1039Q937 1113 875 1151T583 1190H452V854Z" />
<glyph unicode="C" glyph-name="C" horiz-adv-x="1418" d="M86 717Q86 1062 261 1265T766 1468Q956 1468 1088 1409T1274 1238Q1310 1164 1262 1138L1142 1074Q1079 1040 1038 1112Q1012 1158 942 1195T776 1232Q566 1232 482 1100T398 717Q398 467 482 335T776
202Q889 202 966 253T1074 350Q1123 425 1178 388L1298 308Q1347 275 1308 208Q1250 108 1109 37T766 -34Q441 -34 264 169T86 717Z" />
<glyph unicode="D" glyph-name="D" horiz-adv-x="1450" d="M230 0Q160 0 160 75V1359Q160 1434 230 1434H579Q1039 1434 1201 1248T1364 719Q1364 376 1202 188T579 0H230ZM452 248H560Q870 248 961 363T1052 719Q1052 959 961 1073T560 1188H452V248Z" />
<glyph unicode="E" glyph-name="E" horiz-adv-x="1280" d="M230 0Q160 0 160 75V1359Q160 1434 230 1434H1088Q1163 1434 1163 1369V1251Q1163 1186 1088 1186H452V868H1035Q1110 868 1110 803V685Q1110 620 1035 620H452V248H1120Q1195 248 1195 183V65Q1195
0 1120 0H230Z" />
<glyph unicode="F" glyph-name="F" d="M230 0Q160 0 160 75V1359Q160 1434 230 1434H1021Q1096 1434 1096 1369V1251Q1096 1186 1021 1186H452V838H939Q1014 838 1014 773V655Q1014 590 939 590H452V75Q452 0 382 0H230Z" />
<glyph unicode="G" glyph-name="G" horiz-adv-x="1506" d="M86 717Q86 1062 266 1265T776 1468Q975 1468 1088 1417T1288 1259Q1340 1194 1285 1158L1171 1084Q1121 1051 1064 1113Q1017 1164 945 1198T786 1232Q576 1232 487 1100T398 717Q398 467 487 335T786
202Q888 202 962 222T1102 297V476H885Q810 476 810 541V659Q810 724 885 724H1319Q1394 724 1394 659V151Q1254 48 1112 7T776 -34Q451 -34 269 169T86 717Z" />
<glyph unicode="H" glyph-name="H" horiz-adv-x="1442" d="M230 0Q160 0 160 75V1359Q160 1434 230 1434H382Q452 1434 452 1359V870H990V1359Q990 1434 1060 1434H1212Q1282 1434 1282 1359V75Q1282 0 1212 0H1060Q990 0 990 75V622H452V75Q452 0 382 0H230Z" />
<glyph unicode="I" glyph-name="I" horiz-adv-x="612" d="M230 0Q160 0 160 75V1359Q160 1434 230 1434H382Q452 1434 452 1359V75Q452 0 382 0H230Z" />
<glyph unicode="J" glyph-name="J" horiz-adv-x="947" d="M77 19Q24 50 37 94L79 231Q97 290 173 243Q238 202 318 202Q428 202 461 278T495 531V1359Q495 1434 565 1434H717Q787 1434 787 1359V551Q787 183 664 75T321 -34Q168 -34 77 19Z" />
<glyph unicode="K" glyph-name="K" horiz-adv-x="1361" d="M230 0Q160 0 160 75V1359Q160 1434 230 1434H382Q452 1434 452 1359V961Q452 901 447 841H454L940 1375Q994 1434 1032 1434H1233Q1350 1434 1271 1348L816 850L1303 86Q1358 0 1265 0H1078Q1026 0 988
59L620 636L452 447V75Q452 0 382 0H230Z" />
<glyph unicode="L" glyph-name="L" horiz-adv-x="1162" d="M230 0Q160 0 160 75V1359Q160 1434 230 1434H392Q452 1434 452 1359V248H1035Q1110 248 1110 183V65Q1110 0 1035 0H230Z" />
<glyph unicode="M" glyph-name="M" horiz-adv-x="1828" d="M230 0Q160 0 160 75V1359Q160 1434 230 1434H520Q578 1434 603 1354L874 477Q892 420 899 384T911 297H917Q922 347 929 383T954 477L1225 1354Q1250 1434 1308 1434H1598Q1668 1434 1668 1359V75Q1668
0 1598 0H1446Q1376 0 1376 75V901Q1376 961 1381 1021H1374L1085 81Q1060 0 999 0H829Q768 0 743 81L454 1021H447Q452 961 452 901V75Q452 0 382 0H230Z" />
<glyph unicode="N" glyph-name="N" horiz-adv-x="1472" d="M230 0Q160 0 160 75V1359Q160 1434 230 1434H378Q464 1434 508 1364L1018 545H1025Q1020 605 1020 665V1359Q1020 1434 1090 1434H1242Q1312 1434 1312 1359V75Q1312 0 1242 0H1104Q1018 0 974 70L454
904H447Q452 844 452 784V75Q452 0 382 0H230Z" />
<glyph unicode="O" glyph-name="O" horiz-adv-x="1544" d="M86 717Q86 1062 264 1265T772 1468Q1102 1468 1280 1265T1458 717Q1458 372 1280 169T772 -34Q442 -34 264 169T86 717ZM398 717Q398 467 487 335T772 202Q967 202 1056 334T1146 717Q1146 967 1057
1099T772 1232Q577 1232 488 1100T398 717Z" />
<glyph unicode="P" glyph-name="P" horiz-adv-x="1328" d="M230 0Q160 0 160 75V1359Q160 1434 230 1434H604Q964 1434 1103 1317T1243 985Q1243 770 1104 653T604 536H452V75Q452 0 382 0H230ZM452 780H603Q803 780 875 827T947 985Q947 1095 875 1142T603 1190H452V780Z"
/>
<glyph unicode="Q" glyph-name="Q" horiz-adv-x="1544" d="M86 717Q86 1062 264 1265T772 1468Q1102 1468 1280 1265T1458 717Q1458 372 1280 169Q1144 14 919 -23Q928 -113 966 -157T1116 -202Q1167 -202 1222 -188Q1272 -175 1280 -210L1308 -326Q1317 -365
1272 -376Q1154 -407 1084 -407Q816 -407 727 -294T626 -23Q400 13 264 169Q86 372 86 717ZM398 717Q398 467 487 335T772 202Q967 202 1056 334T1146 717Q1146 967 1057 1099T772 1232Q577 1232 488 1100T398 717Z" />
<glyph unicode="R" glyph-name="R" horiz-adv-x="1428" d="M230 0Q160 0 160 75V1359Q160 1434 230 1434H693Q1002 1434 1144 1339T1286 1028Q1286 868 1171 773T879 647V645Q975 609 1024 545T1104 433L1324 86Q1379 0 1286 0H1112Q1057 0 1022 59L820 396Q787
450 700 514T526 579H452V75Q452 0 382 0H230ZM452 827H631Q831 827 915 872T1000 1017Q1000 1125 919 1157T679 1190H452V827Z" />
<glyph unicode="S" glyph-name="S" horiz-adv-x="1308" d="M145 107Q83 154 115 202L192 318Q230 375 303 324Q359 285 449 244T640 202Q710 202 775 218T874 280T908 389Q908 434 893 468T844 524T774 561Q711 587 616 612T427 674Q344 706 275 762T168 888T130
1075Q130 1214 220 1313T427 1440T663 1468Q781 1468 906 1432T1096 1342Q1159 1289 1127 1246L1046 1137Q1005 1081 936 1128Q892 1158 816 1195T656 1232Q597 1232 548 1222T460 1174T422 1080Q422 1026 450 993T512 943T581 915Q689 880 774 854T931 795Q1031
750 1084 705T1171 582T1206 396Q1206 236 1104 132T878 -3T635 -34Q461 -34 352 -1T145 107Z" />
<glyph unicode="T" glyph-name="T" horiz-adv-x="1246" d="M109 1178Q34 1178 34 1243V1369Q34 1434 109 1434H1137Q1212 1434 1212 1369V1243Q1212 1178 1137 1178H769V55Q769 0 719 0H527Q477 0 477 55V1178H109Z" />
<glyph unicode="U" glyph-name="U" horiz-adv-x="1422" d="M160 597V1379Q160 1434 230 1434H382Q452 1434 452 1379V607Q452 337 531 270T711 202Q811 202 890 269T970 607V1379Q970 1434 1040 1434H1192Q1262 1434 1262 1379V597Q1262 247 1114 107T711 -34Q456
-34 308 106T160 597Z" />
<glyph unicode="V" glyph-name="V" horiz-adv-x="1370" d="M43 1368Q18 1434 90 1434H249Q316 1434 341 1365L647 530Q670 466 674 445T683 373H687Q692 423 696 444T723 530L1029 1365Q1054 1434 1121 1434H1280Q1352 1434 1327 1368L849 81Q819 0 755 0H615Q551
0 521 81L43 1368Z" />
<glyph unicode="W" glyph-name="W" horiz-adv-x="2022" d="M45 1354Q23 1434 91 1434H276Q323 1434 339 1368L529 582Q550 496 556 465T568 363H573Q578 433 583 469T612 588L835 1360Q856 1434 919 1434H1103Q1166 1434 1187 1360L1410 588Q1434 505 1439 469T1449
363H1454Q1459 433 1465 464T1493 582L1683 1368Q1699 1434 1746 1434H1931Q1999 1434 1977 1354L1637 97Q1611 0 1543 0H1368Q1310 0 1283 96L1043 934Q1023 1002 1020 1022T1012 1099H1010Q1005 1043 1002 1023T979 934L739 96Q712 0 654 0H479Q411 0 385 97L45
1354Z" />
<glyph unicode="X" glyph-name="X" horiz-adv-x="1418" d="M108 0Q12 0 70 86L513 740L106 1348Q48 1434 144 1434H346Q399 1434 436 1375L709 943L982 1375Q1019 1434 1072 1434H1274Q1370 1434 1312 1348L904 740L1348 86Q1406 0 1310 0H1105Q1053 0 1015 59L709
537L403 59Q365 0 313 0H108Z" />
<glyph unicode="Y" glyph-name="Y" horiz-adv-x="1368" d="M51 1348Q0 1434 98 1434H273Q325 1434 365 1365L578 994Q587 979 631 901T682 748H686Q693 822 737 900T790 994L1003 1365Q1043 1434 1095 1434H1270Q1368 1434 1317 1348L830 525V55Q830 0 760 0H608Q538
0 538 55V525L51 1348Z" />
<glyph unicode="Z" glyph-name="Z" horiz-adv-x="1252" d="M136 0Q61 0 61 65V147Q61 216 112 286L762 1184V1191Q702 1186 642 1186H176Q101 1186 101 1251V1369Q101 1434 176 1434H1088Q1163 1434 1163 1369V1302Q1163 1249 1128 1201L438 250V243Q498 248 558
248H1116Q1191 248 1191 183V65Q1191 0 1116 0H136Z" />
<glyph unicode="[" glyph-name="bracketleft" horiz-adv-x="694" d="M220 -408Q160 -408 160 -348V1436Q160 1496 220 1496H568Q628 1496 628 1446V1346Q628 1296 568 1296H440V-208H568Q628 -208 628 -258V-358Q628 -408 568 -408H220Z" />
<glyph unicode="\" glyph-name="backslash" horiz-adv-x="856" d="M9 1359Q-13 1415 34 1433L115 1464Q161 1482 183 1426L847 -304Q869 -360 822 -378L741 -409Q695 -427 673 -371L9 1359Z" />
<glyph unicode="]" glyph-name="bracketright" horiz-adv-x="694" d="M126 -408Q66 -408 66 -358V-258Q66 -208 126 -208H254V1296H126Q66 1296 66 1346V1446Q66 1496 126 1496H474Q534 1496 534 1436V-348Q534 -408 474 -408H126Z" />
<glyph unicode="^" glyph-name="asciicircum" horiz-adv-x="920" d="M85 929Q45 958 80 1007L370 1405Q396 1441 442 1441H478Q524 1441 550 1405L840 1007Q876 958 835 929L773 885Q732 856 698 904L461 1233H459L222 904Q188 856 147 885L85 929Z" />
<glyph unicode="_" glyph-name="underscore" horiz-adv-x="1200" d="M35 -425Q-25 -425 -25 -375V-275Q-25 -225 35 -225H1165Q1225 -225 1225 -275V-375Q1225 -425 1165 -425H35Z" />
<glyph unicode="`" glyph-name="grave" horiz-adv-x="614" d="M153 1376Q101 1435 175 1435H327Q405 1435 433 1388L541 1209Q577 1150 520 1150H419Q350 1150 318 1187L153 1376Z" />
<glyph unicode="a" glyph-name="a" horiz-adv-x="1123" d="M80 280Q80 480 271 570T707 666V706Q707 798 661 836T533 874Q475 874 431 858T354 820T295 776Q249 736 219 772L136 874Q105 912 151 952Q186 983 232 1006T356 1049T556 1070Q764 1070 875 974T987
691V60Q987 0 927 0H763Q709 0 709 60V90H707Q648 33 566 7T414 -20Q250 -20 165 60T80 280ZM376 286Q376 251 390 226T434 188T501 176Q552 176 600 190T707 256V473Q539 454 482 424T401 362T376 286Z" />
<glyph unicode="b" glyph-name="b" horiz-adv-x="1192" d="M196 0Q136 0 136 60V1416Q136 1476 196 1476H356Q416 1476 416 1416V1012Q416 972 412 932H416Q468 1018 532 1044T686 1070Q921 1070 1016 908T1112 525Q1112 305 1017 143T686 -20Q596 -20 532 6T416
118H412L408 60Q404 0 354 0H196ZM416 480Q416 345 469 261T598 176Q733 176 774 270T816 525Q816 685 775 779T598 874Q523 874 470 790T416 570V480Z" />
<glyph unicode="c" glyph-name="c" horiz-adv-x="1086" d="M80 525Q80 780 208 925T601 1070Q756 1070 842 1029T980 909Q1011 862 970 835L864 765Q819 735 785 788Q768 814 720 844T601 874Q488 874 432 795T376 525Q376 335 432 256T601 176Q682 176 732 210T826
298Q864 344 906 311L999 238Q1041 205 1004 150Q965 92 872 36T601 -20Q336 -20 208 125T80 525Z" />
<glyph unicode="d" glyph-name="d" horiz-adv-x="1192" d="M80 525Q80 745 175 907T506 1070Q596 1070 660 1044T776 932H780Q776 972 776 1012V1416Q776 1476 836 1476H996Q1056 1476 1056 1416V60Q1056 0 996 0H838Q788 0 784 60L780 118H776Q724 32 660 6T506
-20Q271 -20 176 142T80 525ZM376 525Q376 365 417 271T594 176Q669 176 722 260T776 480V570Q776 705 723 789T594 874Q459 874 418 780T376 525Z" />
<glyph unicode="e" glyph-name="e" horiz-adv-x="1174" d="M80 525Q80 778 206 924T564 1070Q832 1070 962 932T1092 488Q1092 428 1036 428H376Q392 262 458 219T611 176Q694 176 738 198T812 258Q846 302 896 272L996 211Q1055 175 1013 125Q952 52 870 16T611
-20Q324 -20 202 126T80 525ZM377 628H812Q812 736 758 804T586 873Q492 873 437 808T377 628Z" />
<glyph unicode="f" glyph-name="f" horiz-adv-x="682" d="M101 850Q42 850 42 900V1000Q42 1050 101 1050H157V1190Q157 1374 262 1435T512 1496Q581 1496 630 1488T718 1468Q754 1456 744 1418L714 1305Q705 1272 668 1285Q646 1293 607 1296T544 1300Q471 1300
454 1249T437 1090V1050H569Q628 1050 628 1000V900Q628 850 569 850H437V60Q437 0 377 0H217Q157 0 157 60V850H101Z" />
<glyph unicode="g" glyph-name="g" horiz-adv-x="1192" d="M80 525Q80 745 175 907T506 1070Q596 1070 660 1044T776 932H780L784 990Q788 1050 838 1050H996Q1056 1050 1056 990V11Q1056 -234 924 -327T542 -420Q436 -420 346 -409T164 -354Q116 -331 148 -267L184
-195Q206 -151 257 -175Q298 -194 358 -209T512 -224Q640 -224 708 -177T776 31V48Q776 88 780 128H776Q724 42 660 16T506 -10Q271 -10 176 152T80 525ZM376 525Q376 375 417 281T594 186Q669 186 722 270T776 490V570Q776 705 723 789T594 874Q459 874 418 780T376
525Z" />
<glyph unicode="h" glyph-name="h" horiz-adv-x="1200" d="M196 0Q136 0 136 60V1416Q136 1476 196 1476H356Q416 1476 416 1416V1012Q416 972 412 932H418Q464 1011 535 1040T706 1070Q862 1070 964 972T1066 614V60Q1066 0 1006 0H846Q786 0 786 60V542Q786
760 756 817T627 874Q522 874 469 793T416 454V60Q416 0 356 0H196Z" />
<glyph unicode="i" glyph-name="i" horiz-adv-x="552" d="M196 0Q136 0 136 60V990Q136 1050 196 1050H356Q416 1050 416 990V60Q416 0 356 0H196ZM452 1204Q392 1204 392 1264V1392Q392 1452 452 1452H612Q672 1452 672 1392V1264Q672 1204 612 1204H452Z" />
<glyph unicode="j" glyph-name="j" horiz-adv-x="562" d="M-81 -409Q-119 -402 -110 -357L-88 -247Q-79 -201 -37 -217Q-19 -224 35 -224Q98 -224 122 -158T146 26V990Q146 1050 206 1050H366Q426 1050 426 990V-4Q426 -252 329 -336T70 -420Q-20 -420 -81 -409ZM462
1204Q402 1204 402 1264V1392Q402 1452 462 1452H622Q682 1452 682 1392V1264Q682 1204 622 1204H462Z" />
<glyph unicode="k" glyph-name="k" horiz-adv-x="1115" d="M196 0Q136 0 136 60V1416Q136 1476 196 1476H356Q416 1476 416 1416V681Q416 641 412 601H416L733 1009Q765 1050 811 1050H975Q1067 1050 1006 976L704 611L1054 74Q1102 0 1023 0H852Q802 0 770 52L543
417L416 264V60Q416 0 356 0H196Z" />
<glyph unicode="l" glyph-name="l" horiz-adv-x="552" d="M196 0Q136 0 136 60V1241Q136 1286 157 1323L234 1458Q256 1496 286 1496H356Q416 1496 416 1436V60Q416 0 356 0H196Z" />
<glyph unicode="m" glyph-name="m" horiz-adv-x="1750" d="M196 0Q136 0 136 60V990Q136 1050 196 1050H354Q414 1050 414 990V932H418Q447 996 516 1033T645 1070Q765 1070 831 1014T923 889H927Q1014 1002 1084 1036T1265 1070Q1413 1070 1514 972T1616 614V60Q1616
0 1556 0H1396Q1336 0 1336 60V542Q1336 760 1307 817T1202 874Q1132 874 1074 792T1016 454V60Q1016 0 956 0H796Q736 0 736 60V542Q736 760 707 817T602 874Q532 874 474 793T416 454V60Q416 0 356 0H196Z" />
<glyph unicode="n" glyph-name="n" horiz-adv-x="1200" d="M196 0Q136 0 136 60V990Q136 1050 196 1050H354Q414 1050 414 990V932H418Q464 1011 535 1040T706 1070Q862 1070 964 972T1066 614V60Q1066 0 1006 0H846Q786 0 786 60V542Q786 760 756 817T627 874Q522
874 469 793T416 454V60Q416 0 356 0H196Z" />
<glyph unicode="o" glyph-name="o" horiz-adv-x="1206" d="M80 525Q80 780 211 925T603 1070Q863 1070 994 925T1126 525Q1126 270 995 125T603 -20Q343 -20 212 125T80 525ZM376 525Q376 335 434 256T603 176Q713 176 771 255T830 525Q830 715 772 794T603 874Q493
874 435 795T376 525Z" />
<glyph unicode="p" glyph-name="p" horiz-adv-x="1192" d="M196 -400Q136 -400 136 -340V990Q136 1050 196 1050H354Q404 1050 408 990L412 932H416Q468 1018 532 1044T686 1070Q921 1070 1016 908T1112 525Q1112 305 1017 143T686 -20Q596 -20 532 6T416 118H412Q416
78 416 38V-340Q416 -400 356 -400H196ZM416 480Q416 345 469 261T598 176Q733 176 774 270T816 525Q816 685 775 779T598 874Q523 874 470 790T416 570V480Z" />
<glyph unicode="q" glyph-name="q" horiz-adv-x="1192" d="M80 525Q80 745 175 907T506 1070Q596 1070 660 1044T776 932H780L784 990Q788 1050 838 1050H996Q1056 1050 1056 990V-340Q1056 -400 996 -400H836Q776 -400 776 -340V38Q776 78 780 118H776Q724 32
660 6T506 -20Q271 -20 176 142T80 525ZM376 525Q376 365 417 271T594 176Q669 176 722 260T776 480V570Q776 705 723 789T594 874Q459 874 418 780T376 525Z" />
<glyph unicode="r" glyph-name="r" horiz-adv-x="786" d="M196 0Q136 0 136 60V990Q136 1050 196 1050H354Q414 1050 414 990V908H418Q444 972 505 1021T649 1070Q706 1070 743 1056Q778 1043 770 1008L742 889Q733 849 688 865Q662 874 638 874Q542 874 479 759T416
424V60Q416 0 356 0H196Z" />
<glyph unicode="s" glyph-name="s" horiz-adv-x="1005" d="M93 70Q44 105 66 145L117 238Q144 288 201 250Q258 212 335 194T477 176Q522 176 561 185T627 220T654 296Q654 326 638 347T597 379T544 397Q507 406 438 427T304 476Q251 499 201 540T127 633T103
759Q103 860 161 936T313 1041T545 1070Q639 1070 728 1043T855 992Q915 954 885 911L824 822Q796 782 734 816Q687 842 642 858T540 874Q502 874 467 866T408 836T383 778Q383 740 405 719T457 687T514 668Q570 650 627 634T743 594Q794 574 842 537T912 443T934
313Q934 216 876 133T723 15T502 -20Q361 -20 262 0T93 70Z" />
<glyph unicode="t" glyph-name="t" horiz-adv-x="798" d="M101 850Q42 850 42 900V1000Q42 1050 101 1050H169V1085Q169 1130 190 1167L267 1302Q289 1340 319 1340H389Q449 1340 449 1280V1050H611Q670 1050 670 1000V900Q670 850 611 850H449V354Q449 252 463
208T539 163Q570 163 609 173T670 194Q705 210 716 171L746 57Q755 23 720 7Q687 -8 630 -20T514 -33Q371 -33 270 26T169 269V850H101Z" />
<glyph unicode="u" glyph-name="u" horiz-adv-x="1194" d="M134 436V990Q134 1050 194 1050H354Q414 1050 414 990V508Q414 290 444 233T570 176Q672 176 725 257T778 596V990Q778 1050 838 1050H998Q1058 1050 1058 990V60Q1058 0 998 0H840Q780 0 780 60V118H776Q730
39 659 10T491 -20Q338 -20 236 78T134 436Z" />
<glyph unicode="v" glyph-name="v" horiz-adv-x="1008" d="M42 972Q17 1050 75 1050H254Q301 1050 314 999L469 413Q482 364 490 316T501 238H507Q509 268 517 316T539 413L694 999Q707 1050 754 1050H933Q991 1050 966 972L676 67Q655 0 603 0H405Q353 0 332 67L42 972Z" />
<glyph unicode="w" glyph-name="w" horiz-adv-x="1604" d="M42 972Q20 1050 75 1050H244Q292 1050 304 999L439 413Q451 362 460 315T471 238H477Q479 268 488 316T509 413L651 999Q663 1050 711 1050H893Q941 1050 953 999L1095 413Q1107 365 1116 317T1127 238H1133Q1135
268 1144 315T1165 413L1300 999Q1312 1050 1360 1050H1529Q1584 1050 1562 972L1302 67Q1283 0 1229 0H1048Q991 0 975 67L830 660Q817 711 812 742T804 811H800Q798 773 793 742T774 660L629 67Q613 0 556 0H375Q321 0 302 67L42 972Z" />
<glyph unicode="x" glyph-name="x" horiz-adv-x="1086" d="M92 0Q6 0 56 73L387 553L95 977Q45 1050 131 1050H320Q365 1050 388 1010L543 740L698 1010Q721 1050 766 1050H955Q1042 1050 991 977L697 553L1030 73Q1081 0 994 0H805Q761 0 737 40L543 366L349
40Q325 0 281 0H92Z" />
<glyph unicode="y" glyph-name="y" horiz-adv-x="990" d="M44 972Q17 1050 77 1050H256Q302 1050 316 999L467 440Q478 401 486 340T495 261H501Q513 314 518 345T549 468L692 999Q706 1050 752 1050H931Q990 1050 964 972L627 -42Q568 -220 482 -320T243 -420Q159
-420 93 -406Q55 -398 64 -354L86 -244Q95 -201 137 -214Q168 -224 195 -224Q276 -224 318 -147T375 -15L378 0L44 972Z" />
<glyph unicode="z" glyph-name="z" horiz-adv-x="964" d="M112 0Q52 0 52 50V126Q52 178 93 234L541 850V854Q501 850 461 850H136Q76 850 76 900V932Q76 1050 136 1050H828Q888 1050 888 1000V930Q888 881 845 822L394 200V196Q447 200 474 200H852Q912 200 912
150V50Q912 0 852 0H112Z" />
<glyph unicode="{" glyph-name="braceleft" horiz-adv-x="829" d="M134 444Q85 444 85 503V585Q85 644 134 644Q187 644 246 695T305 931V1216Q305 1383 382 1439T713 1496Q773 1496 773 1446V1346Q773 1296 713 1296Q616 1296 601 1249T585 1139V884Q585 720
518 645T344 545V543Q451 518 518 443T585 204V-51Q585 -114 600 -161T713 -208Q773 -208 773 -258V-358Q773 -408 713 -408Q459 -408 382 -352T305 -128V157Q305 341 246 392T134 444Z" />
<glyph unicode="|" glyph-name="bar" horiz-adv-x="630" d="M265 -440Q215 -440 215 -380V1436Q215 1496 265 1496H365Q415 1496 415 1436V-380Q415 -440 365 -440H265Z" />
<glyph unicode="}" glyph-name="braceright" horiz-adv-x="829" d="M116 -408Q56 -408 56 -358V-258Q56 -208 116 -208Q213 -208 228 -161T244 -51V204Q244 368 311 443T485 543V545Q378 570 311 645T244 884V1139Q244 1202 229 1249T116 1296Q56 1296 56 1346V1446Q56
1496 116 1496Q370 1496 447 1440T524 1216V931Q524 747 583 696T695 644Q744 644 744 585V503Q744 444 695 444Q642 444 583 393T524 157V-128Q524 -295 447 -351T116 -408Z" />
<glyph unicode="~" glyph-name="asciitilde" horiz-adv-x="1280" d="M100 634Q69 650 83 688Q128 810 205 868T424 926Q554 926 686 820T893 714Q968 714 1002 745T1062 822Q1088 867 1114 852L1180 816Q1211 800 1197 762Q1152 640 1075 582T856 524Q726 524
594 630T387 736Q312 736 278 705T218 628Q192 583 166 598L100 634Z" />
<glyph unicode="&#xa0;" glyph-name="nbsp" horiz-adv-x="700" />
<glyph unicode="&#xa1;" glyph-name="exclamdown" horiz-adv-x="668" d="M254 -384Q182 -384 184 -309L211 565Q213 630 276 630H392Q455 630 457 565L484 -309Q486 -384 414 -384H254ZM258 766Q188 766 188 841V975Q188 1050 258 1050H410Q480 1050 480 975V841Q480
766 410 766H258Z" />
<glyph unicode="&#xa2;" glyph-name="cent" horiz-adv-x="1200" d="M136 525Q136 780 252 912T566 1065V1240Q566 1300 616 1300H696Q746 1300 746 1240V1066Q839 1057 911 1023T1036 909Q1067 862 1026 835L920 765Q875 735 841 788Q824 814 793 833T746 859V189Q769
197 803 220T882 298Q920 344 962 311L1055 238Q1097 205 1060 150Q1021 92 940 44T746 -16V-190Q746 -250 696 -250H616Q566 -250 566 -190V-15Q369 6 253 138T136 525ZM432 525Q432 335 475 274T566 192V858Q519 838 476 777T432 525Z" />
<glyph unicode="&#xa3;" glyph-name="sterling" horiz-adv-x="1200" d="M145 0Q70 0 70 65V124Q70 177 111 212Q155 249 197 301T240 490V583H139Q75 583 75 648V766Q75 831 140 831H240V973Q240 1224 369 1340T711 1456Q812 1456 897 1426T1050 1323Q1098 1271
1071 1239L1001 1155Q958 1103 908 1155Q868 1196 818 1214T709 1232Q612 1232 566 1176T520 1010V831H757Q822 831 822 766V648Q822 583 758 583H520V495Q520 404 503 345T449 250V244Q509 248 549 248H1049Q1124 248 1124 183V65Q1124 0 1049 0H145Z" />
<glyph unicode="&#xa4;" glyph-name="currency" horiz-adv-x="1200" d="M86 276Q50 310 91 354L217 490Q155 596 155 728Q155 860 217 966L91 1102Q50 1146 86 1180L149 1239Q186 1273 227 1229L342 1105Q452 1187 600 1187Q748 1187 858 1105L973 1229Q1014 1273
1051 1239L1114 1180Q1150 1146 1109 1102L983 966Q1045 860 1045 728Q1045 596 983 490L1109 354Q1150 310 1114 276L1051 217Q1014 183 973 227L858 351Q748 269 600 269Q452 269 342 351L227 227Q186 183 149 217L86 276ZM350 728Q350 620 419 542T600 463Q711
463 780 541T850 728Q850 836 781 914T600 993Q489 993 420 915T350 728Z" />
<glyph unicode="&#xa5;" glyph-name="yen" horiz-adv-x="1200" d="M13 1348Q-39 1434 60 1434H215Q272 1434 307 1365L494 994Q532 920 561 871T598 748H602Q609 822 638 870T706 994L893 1365Q928 1434 985 1434H1140Q1239 1434 1187 1348L838 768H992Q1052 768
1052 708V620Q1052 560 992 560H740V391H992Q1052 391 1052 331V243Q1052 183 992 183H740V60Q740 0 680 0H520Q460 0 460 60V183H208Q148 183 148 243V331Q148 391 208 391H460V560H208Q148 560 148 620V708Q148 768 208 768H362L13 1348Z" />
<glyph unicode="&#xa6;" glyph-name="brokenbar" horiz-adv-x="630" d="M265 -338Q215 -338 215 -278V336Q215 396 265 396H365Q415 396 415 336V-278Q415 -338 365 -338H265ZM265 660Q215 660 215 720V1334Q215 1394 265 1394H365Q415 1394 415 1334V720Q415
660 365 660H265Z" />
<glyph unicode="&#xa7;" glyph-name="section" horiz-adv-x="1236" d="M104 601Q104 724 182 809T353 964Q282 1062 282 1155Q282 1302 382 1385T644 1468Q748 1468 815 1436T938 1349Q980 1307 950 1277L867 1194Q842 1169 806 1204Q776 1234 744 1253T659 1272Q623
1272 595 1250T566 1175Q566 1066 849 875T1132 489Q1132 366 1054 281T883 126Q954 28 954 -65Q954 -212 854 -295T592 -378Q488 -378 421 -346T298 -259Q256 -217 286 -187L369 -104Q394 -79 430 -114Q460 -144 492 -163T577 -182Q613 -182 641 -160T670 -85Q670
24 387 215T104 601ZM346 646Q346 558 529 428T763 254L842 324Q890 367 890 444Q890 532 707 662T473 836L394 766Q346 723 346 646Z" />
<glyph unicode="&#xa8;" glyph-name="dieresis" horiz-adv-x="614" d="M36 1206Q-24 1206 -24 1266V1382Q-24 1442 36 1442H152Q212 1442 212 1382V1266Q212 1206 152 1206H36ZM462 1206Q402 1206 402 1266V1382Q402 1442 462 1442H578Q638 1442 638 1382V1266Q638
1206 578 1206H462Z" />
<glyph unicode="&#xa9;" glyph-name="copyright" horiz-adv-x="1654" d="M76 717Q76 870 136 1008T296 1247T535 1408T827 1468Q980 1468 1118 1408T1357 1248T1518 1009T1578 717Q1578 564 1518 426T1358 187T1119 26T827 -34Q674 -34 536 26T297 186T136 425T76
717ZM192 717Q192 587 242 470T378 268T580 131T827 78Q957 78 1074 130T1276 268T1411 470T1462 717Q1462 847 1412 964T1276 1166T1074 1303T827 1356Q697 1356 580 1304T378 1166T243 964T192 717ZM428 717Q428 917 530 1035T823 1153Q930 1153 1009 1120T1121
1022Q1142 980 1114 964L1038 921Q1001 900 978 943Q963 970 924 991T829 1012Q707 1012 661 937T615 717Q615 572 661 497T829 422Q895 422 938 451T999 507Q1027 551 1059 529L1135 477Q1163 458 1140 419Q1106 361 1023 321T823 281Q635 281 532 399T428 717Z"
/>
<glyph unicode="&#xaa;" glyph-name="ordfeminine" horiz-adv-x="776" d="M54 972Q54 1100 171 1166T471 1247V1257Q471 1300 433 1319T350 1339Q308 1339 269 1330T201 1299Q164 1272 149 1297L100 1380Q82 1411 111 1431Q154 1460 218 1478T368 1496Q509 1496
590 1434T671 1239V839Q671 800 630 800H509Q472 800 472 839V857H471Q422 818 374 803T282 787Q178 787 116 834T54 972ZM266 991Q266 959 292 951T341 943Q376 943 401 951T471 988V1094Q358 1078 312 1057T266 991Z" />
<glyph unicode="&#xab;" glyph-name="guillemotleft" horiz-adv-x="1108" d="M121 498Q90 537 121 576L429 962Q457 997 489 972L577 902Q604 880 573 842L326 537L573 232Q604 194 577 172L489 102Q457 77 429 112L121 498ZM523 498Q492 537 523 576L831 962Q859
997 891 972L979 902Q1006 880 975 842L728 537L975 232Q1006 194 979 172L891 102Q859 77 831 112L523 498Z" />
<glyph unicode="&#xac;" glyph-name="logicalnot" horiz-adv-x="1200" d="M135 775Q75 775 75 825V911Q75 961 135 961H1125V463Q1125 403 1075 403H989Q939 403 939 463V775H135Z" />
<glyph unicode="&#xad;" glyph-name="uni00AD" horiz-adv-x="700" d="M113 446Q53 446 53 496V610Q53 660 113 660H587Q647 660 647 610V496Q647 446 587 446H113Z" />
<glyph unicode="&#xae;" glyph-name="registered" horiz-adv-x="1654" d="M76 717Q76 870 136 1008T296 1247T535 1408T827 1468Q980 1468 1118 1408T1357 1248T1518 1009T1578 717Q1578 564 1518 426T1358 187T1119 26T827 -34Q674 -34 536 26T297 186T136 425T76
717ZM192 717Q192 587 242 470T378 268T580 131T827 78Q957 78 1074 130T1276 268T1411 470T1462 717Q1462 847 1412 964T1276 1166T1074 1303T827 1356Q697 1356 580 1304T378 1166T243 964T192 717ZM562 283Q521 283 521 326V1071Q521 1114 562 1114H830Q1009
1114 1091 1059T1174 879Q1174 786 1108 731T938 658V657Q994 636 1022 600T1068 534L1196 333Q1228 283 1174 283H1067Q1035 283 1015 317L898 512Q880 542 829 580T727 618H696V326Q696 283 656 283H562ZM696 763H790Q906 763 955 789T1004 872Q1004 935 957
952T818 970H696V763Z" />
<glyph unicode="&#xaf;" glyph-name="overscore" horiz-adv-x="614" d="M38 1226Q-22 1226 -22 1276V1342Q-22 1392 38 1392H576Q636 1392 636 1342V1276Q636 1226 576 1226H38Z" />
<glyph unicode="&#xb0;" glyph-name="degree" horiz-adv-x="600" d="M76 1240Q76 1333 141 1398T300 1464Q393 1464 458 1399T524 1240Q524 1147 459 1082T300 1016Q207 1016 142 1081T76 1240ZM216 1240Q216 1204 240 1180T300 1156Q336 1156 360 1180T384 1240Q384
1276 360 1300T300 1324Q264 1324 240 1300T216 1240Z" />
<glyph unicode="&#xb1;" glyph-name="plusminus" horiz-adv-x="1280" d="M135 -153Q75 -153 75 -103V-17Q75 33 135 33H1145Q1205 33 1205 -17V-103Q1205 -153 1145 -153H135ZM135 632Q75 632 75 682V768Q75 818 135 818H547V1230Q547 1290 597 1290H683Q733 1290
733 1230V818H1145Q1205 818 1205 768V682Q1205 632 1145 632H733V220Q733 160 683 160H597Q547 160 547 220V632H135Z" />
<glyph unicode="&#xb2;" glyph-name="uni00B2" horiz-adv-x="630" d="M85 712Q46 712 46 746V782Q46 809 71 835Q71 835 226 999Q281 1058 341 1124T402 1246Q402 1292 378 1317T309 1342Q248 1342 217 1309T173 1239Q160 1198 130 1212L72 1239Q48 1250 58 1287Q78
1361 140 1414T325 1468Q453 1468 510 1403T568 1260Q568 1168 491 1095T341 946L253 853V850Q284 852 305 852H538Q577 852 577 818V746Q577 712 538 712H85Z" />
<glyph unicode="&#xb3;" glyph-name="uni00B3" horiz-adv-x="630" d="M50 765Q29 783 47 814L77 867Q95 898 132 872Q164 849 205 835T289 821Q343 821 377 852T411 931Q411 978 374 1012T283 1047H243Q209 1047 209 1074V1143Q209 1172 243 1172H274Q317 1172
352 1201T388 1271Q388 1294 366 1318T292 1342Q245 1342 211 1329T150 1291Q119 1262 97 1294L61 1347Q44 1372 71 1398Q108 1434 167 1451T284 1468Q417 1468 483 1415T550 1285Q550 1228 504 1181T408 1116V1114Q467 1099 522 1050T577 929Q577 815 504 755T283
694Q221 694 155 713T50 765Z" />
<glyph unicode="&#xb4;" glyph-name="acute" horiz-adv-x="614" d="M174 1150Q117 1150 153 1209L261 1388Q289 1435 367 1435H519Q593 1435 541 1376L376 1187Q344 1150 275 1150H174Z" />
<glyph unicode="&#xb5;" glyph-name="uni00B5" horiz-adv-x="1234" d="M196 -400Q136 -400 136 -340V990Q136 1050 196 1050H356Q416 1050 416 990V596Q416 351 478 264T617 176Q717 176 767 271T818 596V990Q818 1050 878 1050H1038Q1098 1050 1098 990V60Q1098
0 1038 0H880Q820 0 820 60V118H816Q780 45 735 13T621 -20Q552 -20 503 11T418 118H412Q416 78 416 38V-340Q416 -400 356 -400H196Z" />
<glyph unicode="&#xb6;" glyph-name="paragraph" horiz-adv-x="1140" d="M75 1084Q75 1226 179 1330T445 1434H595Q645 1434 645 1374V-310Q645 -370 595 -370H495Q445 -370 445 -310V734Q283 734 179 838T75 1084ZM854 -370Q804 -370 804 -310V1374Q804 1434
854 1434H954Q1004 1434 1004 1374V-310Q1004 -370 954 -370H854Z" />
<glyph unicode="&#xb7;" glyph-name="middot" horiz-adv-x="668" d="M258 583Q188 583 188 658V792Q188 867 258 867H410Q480 867 480 792V658Q480 583 410 583H258Z" />
<glyph unicode="&#xb8;" glyph-name="cedilla" horiz-adv-x="614" d="M117 -401Q89 -393 99 -359L112 -314Q123 -277 158 -291Q192 -304 238 -304Q279 -304 302 -291T326 -248Q326 -223 302 -210T223 -197H202Q168 -197 168 -162Q168 -121 182 -94L230 0Q241 22
270 22H353Q383 22 372 0L327 -88V-91Q413 -103 447 -142T481 -244Q481 -340 415 -379T249 -419Q180 -419 117 -401Z" />
<glyph unicode="&#xb9;" glyph-name="uni00B9" horiz-adv-x="520" d="M78 1299Q65 1324 96 1339Q126 1353 166 1379T227 1431Q250 1460 272 1460H369Q400 1460 400 1429V743Q400 712 369 712H271Q240 712 240 743V1227Q240 1248 242 1269H240Q224 1249 196 1234T154
1212Q130 1202 117 1226L78 1299Z" />
<glyph unicode="&#xba;" glyph-name="ordmasculine" horiz-adv-x="820" d="M54 1141Q54 1311 142 1403T410 1496Q590 1496 678 1404T766 1141Q766 971 678 879T410 787Q230 787 142 879T54 1141ZM266 1141Q266 1026 305 985T410 943Q475 943 514 984T554 1141Q554
1256 515 1298T410 1340Q345 1340 306 1298T266 1141Z" />
<glyph unicode="&#xbb;" glyph-name="guillemotright" horiz-adv-x="1108" d="M129 178Q102 200 133 238L380 543L133 848Q102 886 129 908L217 978Q249 1003 277 968L585 582Q616 543 585 504L277 118Q249 83 217 108L129 178ZM531 178Q504 200 535 238L782 543L535
848Q504 886 531 908L619 978Q651 1003 679 968L987 582Q1018 543 987 504L679 118Q651 83 619 108L531 178Z" />
<glyph unicode="&#xbc;" glyph-name="onequarter" horiz-adv-x="1776" d="M307 -29Q266 0 300 49L1321 1507Q1356 1557 1397 1528L1467 1479Q1508 1450 1474 1401L453 -57Q418 -107 377 -78L307 -29ZM1100 156Q1066 156 1066 190V269Q1066 298 1082 321L1365 721Q1384
748 1413 748H1504Q1538 748 1538 714V296H1599Q1633 296 1633 262V190Q1633 156 1600 156H1538V34Q1538 0 1505 0H1412Q1378 0 1378 34V156H1100ZM1221 296H1378V476Q1378 497 1380 517H1378L1221 296ZM198 1299Q185 1324 216 1339Q246 1353 286 1379T347 1431Q370
1460 392 1460H489Q520 1460 520 1429V743Q520 712 489 712H391Q360 712 360 743V1227Q360 1248 362 1269H360Q344 1249 316 1234T274 1212Q250 1202 237 1226L198 1299Z" />
<glyph unicode="&#xbd;" glyph-name="onehalf" horiz-adv-x="1776" d="M307 -29Q266 0 300 49L1321 1507Q1356 1557 1397 1528L1467 1479Q1508 1450 1474 1401L453 -57Q418 -107 377 -78L307 -29ZM198 1299Q185 1324 216 1339Q246 1353 286 1379T347 1431Q370
1460 392 1460H489Q520 1460 520 1429V743Q520 712 489 712H391Q360 712 360 743V1227Q360 1248 362 1269H360Q344 1249 316 1234T274 1212Q250 1202 237 1226L198 1299ZM1159 0Q1120 0 1120 34V70Q1120 97 1145 123Q1145 123 1300 287Q1355 346 1415 412T1476
534Q1476 580 1452 605T1383 630Q1322 630 1291 597T1247 527Q1234 486 1204 500L1146 527Q1122 538 1132 575Q1152 649 1214 702T1399 756Q1527 756 1584 691T1642 548Q1642 456 1565 383T1415 234L1327 141V138Q1358 140 1379 140H1612Q1651 140 1651 106V34Q1651
0 1612 0H1159Z" />
<glyph unicode="&#xbe;" glyph-name="threequarters" horiz-adv-x="1776" d="M307 -29Q266 0 300 49L1321 1507Q1356 1557 1397 1528L1467 1479Q1508 1450 1474 1401L453 -57Q418 -107 377 -78L307 -29ZM146 765Q125 783 143 814L173 867Q191 898 228 872Q260
849 301 835T385 821Q439 821 473 852T507 931Q507 978 470 1012T379 1047H339Q305 1047 305 1074V1143Q305 1172 339 1172H370Q413 1172 448 1201T484 1271Q484 1294 462 1318T388 1342Q341 1342 307 1329T246 1291Q215 1262 193 1294L157 1347Q140 1372 167 1398Q204
1434 263 1451T380 1468Q513 1468 579 1415T646 1285Q646 1228 600 1181T504 1116V1114Q563 1099 618 1050T673 929Q673 815 600 755T379 694Q317 694 251 713T146 765ZM1096 156Q1062 156 1062 190V269Q1062 298 1078 321L1361 721Q1380 748 1409 748H1500Q1534
748 1534 714V296H1595Q1629 296 1629 262V190Q1629 156 1596 156H1534V34Q1534 0 1501 0H1408Q1374 0 1374 34V156H1096ZM1217 296H1374V476Q1374 497 1376 517H1374L1217 296Z" />
<glyph unicode="&#xbf;" glyph-name="questiondown" horiz-adv-x="1106" d="M100 -18Q100 123 265 286T431 556V572Q431 637 496 637H646Q711 637 711 572V542Q711 378 556 216T400 -24Q400 -105 437 -149T572 -194Q658 -194 711 -155T798 -60Q831 -5 887 -41L992
-108Q1044 -141 1005 -210Q964 -282 850 -350T562 -418Q325 -418 213 -311T100 -18ZM495 766Q425 766 425 841V975Q425 1050 495 1050H647Q717 1050 717 975V841Q717 766 647 766H495Z" />
<glyph unicode="&#xc0;" glyph-name="Agrave" horiz-adv-x="1394" d="M830 1540H727Q657 1540 616 1578L458 1724Q392 1785 482 1785H658Q736 1785 767 1738L855 1604Q897 1540 830 1540ZM90 0Q18 0 43 66L533 1353Q564 1434 627 1434H767Q830 1434 861 1353L1351
66Q1376 0 1304 0H1145Q1079 0 1053 69L951 338H443L341 69Q315 0 249 0H90ZM536 586H858L735 904Q713 960 709 985T699 1061H695Q690 1011 686 986T659 904L536 586Z" />
<glyph unicode="&#xc1;" glyph-name="Aacute" horiz-adv-x="1394" d="M564 1540Q497 1540 539 1604L627 1738Q658 1785 736 1785H912Q1002 1785 936 1724L778 1578Q737 1540 667 1540H564ZM90 0Q18 0 43 66L533 1353Q564 1434 627 1434H767Q830 1434 861 1353L1351
66Q1376 0 1304 0H1145Q1079 0 1053 69L951 338H443L341 69Q315 0 249 0H90ZM536 586H858L735 904Q713 960 709 985T699 1061H695Q690 1011 686 986T659 904L536 586Z" />
<glyph unicode="&#xc2;" glyph-name="Acircumflex" horiz-adv-x="1394" d="M309 1585Q290 1632 348 1655L592 1753Q624 1766 667 1766H727Q770 1766 802 1753L1046 1655Q1104 1632 1085 1585L1065 1535Q1046 1488 989 1512L698 1632H696L405 1512Q348 1488 329
1535L309 1585ZM90 0Q18 0 43 66L533 1353Q564 1434 627 1434H767Q830 1434 861 1353L1351 66Q1376 0 1304 0H1145Q1079 0 1053 69L951 338H443L341 69Q315 0 249 0H90ZM536 586H858L735 904Q713 960 709 985T699 1061H695Q690 1011 686 986T659 904L536 586Z"
/>
<glyph unicode="&#xc3;" glyph-name="Atilde" horiz-adv-x="1394" d="M318 1583Q284 1604 310 1647Q347 1708 402 1746T555 1785Q625 1785 719 1739T852 1693Q887 1693 919 1710T968 1752Q995 1794 1028 1774L1076 1745Q1110 1724 1084 1681Q1047 1620 992 1582T839
1543Q765 1543 675 1589T542 1635Q507 1635 475 1618T426 1576Q399 1534 366 1554L318 1583ZM90 0Q18 0 43 66L533 1353Q564 1434 627 1434H767Q830 1434 861 1353L1351 66Q1376 0 1304 0H1145Q1079 0 1053 69L951 338H443L341 69Q315 0 249 0H90ZM536 586H858L735
904Q713 960 709 985T699 1061H695Q690 1011 686 986T659 904L536 586Z" />
<glyph unicode="&#xc4;" glyph-name="Adieresis" horiz-adv-x="1394" d="M90 0Q18 0 43 66L533 1353Q564 1434 627 1434H767Q830 1434 861 1353L1351 66Q1376 0 1304 0H1145Q1079 0 1053 69L951 338H443L341 69Q315 0 249 0H90ZM536 586H858L735 904Q713 960 709
985T699 1061H695Q690 1011 686 986T659 904L536 586ZM367 1530Q297 1530 297 1605V1711Q297 1786 367 1786H519Q589 1786 589 1711V1605Q589 1530 519 1530H367ZM875 1530Q805 1530 805 1605V1711Q805 1786 875 1786H1027Q1097 1786 1097 1711V1605Q1097 1530
1027 1530H875Z" />
<glyph unicode="&#xc5;" glyph-name="Aring" horiz-adv-x="1394" d="M90 0Q18 0 43 66L533 1353Q564 1434 627 1434H767Q830 1434 861 1353L1351 66Q1376 0 1304 0H1145Q1079 0 1053 69L951 338H443L341 69Q315 0 249 0H90ZM536 586H858L735 904Q713 960 709 985T699
1061H695Q690 1011 686 986T659 904L536 586ZM510 1647Q510 1724 563 1774T697 1825Q777 1825 830 1774T884 1647Q884 1572 831 1521T697 1469Q617 1469 564 1519T510 1647ZM602 1647Q602 1609 628 1583T697 1557Q739 1557 765 1583T792 1647Q792 1685 766 1711T697
1737Q655 1737 629 1711T602 1647Z" />
<glyph unicode="&#xc6;" glyph-name="AE" horiz-adv-x="1911" d="M90 0Q15 0 43 66L587 1353Q621 1434 681 1434H1719Q1794 1434 1794 1369V1251Q1794 1186 1719 1186H1116V868H1666Q1741 868 1741 803V685Q1741 620 1666 620H1116V248H1751Q1826 248 1826 183V65Q1826
0 1751 0H894Q824 0 824 75V338H458L344 69Q315 0 252 0H90ZM562 586H824V1186H788Q776 1114 761 1066T723 964L562 586Z" />
<glyph unicode="&#xc7;" glyph-name="Ccedilla" horiz-adv-x="1418" d="M86 717Q86 1062 261 1265T766 1468Q956 1468 1088 1409T1274 1238Q1310 1164 1262 1138L1142 1074Q1079 1040 1038 1112Q1012 1158 942 1195T776 1232Q566 1232 482 1100T398 717Q398 467
482 335T776 202Q889 202 966 253T1074 350Q1123 425 1178 388L1298 308Q1347 275 1308 208Q1250 108 1109 37T766 -34Q441 -34 264 169T86 717ZM549 -401Q521 -393 531 -359L544 -314Q555 -277 590 -291Q624 -304 670 -304Q711 -304 734 -291T758 -248Q758 -223
734 -210T655 -197H634Q600 -197 600 -162Q600 -121 614 -94L662 0Q673 22 702 22H785Q815 22 804 0L759 -88V-91Q845 -103 879 -142T913 -244Q913 -340 847 -379T681 -419Q612 -419 549 -401Z" />
<glyph unicode="&#xc8;" glyph-name="Egrave" horiz-adv-x="1280" d="M811 1540H708Q638 1540 597 1578L439 1724Q373 1785 463 1785H639Q717 1785 748 1738L836 1604Q878 1540 811 1540ZM230 0Q160 0 160 75V1359Q160 1434 230 1434H1088Q1163 1434 1163 1369V1251Q1163
1186 1088 1186H452V868H1035Q1110 868 1110 803V685Q1110 620 1035 620H452V248H1120Q1195 248 1195 183V65Q1195 0 1120 0H230Z" />
<glyph unicode="&#xc9;" glyph-name="Eacute" horiz-adv-x="1280" d="M545 1540Q478 1540 520 1604L608 1738Q639 1785 717 1785H893Q983 1785 917 1724L759 1578Q718 1540 648 1540H545ZM230 0Q160 0 160 75V1359Q160 1434 230 1434H1088Q1163 1434 1163 1369V1251Q1163
1186 1088 1186H452V868H1035Q1110 868 1110 803V685Q1110 620 1035 620H452V248H1120Q1195 248 1195 183V65Q1195 0 1120 0H230Z" />
<glyph unicode="&#xca;" glyph-name="Ecircumflex" horiz-adv-x="1280" d="M290 1585Q271 1632 329 1655L573 1753Q605 1766 648 1766H708Q751 1766 783 1753L1027 1655Q1085 1632 1066 1585L1046 1535Q1027 1488 970 1512L679 1632H677L386 1512Q329 1488 310
1535L290 1585ZM230 0Q160 0 160 75V1359Q160 1434 230 1434H1088Q1163 1434 1163 1369V1251Q1163 1186 1088 1186H452V868H1035Q1110 868 1110 803V685Q1110 620 1035 620H452V248H1120Q1195 248 1195 183V65Q1195 0 1120 0H230Z" />
<glyph unicode="&#xcb;" glyph-name="Edieresis" horiz-adv-x="1280" d="M345 1530Q275 1530 275 1605V1711Q275 1786 345 1786H497Q567 1786 567 1711V1605Q567 1530 497 1530H345ZM853 1530Q783 1530 783 1605V1711Q783 1786 853 1786H1005Q1075 1786 1075 1711V1605Q1075
1530 1005 1530H853ZM230 0Q160 0 160 75V1359Q160 1434 230 1434H1088Q1163 1434 1163 1369V1251Q1163 1186 1088 1186H452V868H1035Q1110 868 1110 803V685Q1110 620 1035 620H452V248H1120Q1195 248 1195 183V65Q1195 0 1120 0H230Z" />
<glyph unicode="&#xcc;" glyph-name="Igrave" horiz-adv-x="612" d="M439 1540H336Q266 1540 225 1578L67 1724Q1 1785 91 1785H267Q345 1785 376 1738L464 1604Q506 1540 439 1540ZM230 0Q160 0 160 75V1359Q160 1434 230 1434H382Q452 1434 452 1359V75Q452
0 382 0H230Z" />
<glyph unicode="&#xcd;" glyph-name="Iacute" horiz-adv-x="612" d="M173 1540Q106 1540 148 1604L236 1738Q267 1785 345 1785H521Q611 1785 545 1724L387 1578Q346 1540 276 1540H173ZM230 0Q160 0 160 75V1359Q160 1434 230 1434H382Q452 1434 452 1359V75Q452
0 382 0H230Z" />
<glyph unicode="&#xce;" glyph-name="Icircumflex" horiz-adv-x="612" d="M174 1585Q155 1632 213 1655L457 1753Q489 1766 532 1766H592Q635 1766 667 1753L911 1655Q969 1632 950 1585L930 1535Q911 1488 854 1512L563 1632H561L270 1512Q213 1488 194 1535L174
1585ZM230 0Q160 0 160 75V1359Q160 1434 230 1434H382Q452 1434 452 1359V75Q452 0 382 0H230Z" />
<glyph unicode="&#xcf;" glyph-name="Idieresis" horiz-adv-x="612" d="M230 0Q160 0 160 75V1359Q160 1434 230 1434H382Q452 1434 452 1359V75Q452 0 382 0H230ZM272 1530Q202 1530 202 1605V1711Q202 1786 272 1786H404Q474 1786 474 1711V1605Q474 1530 404
1530H272ZM720 1530Q650 1530 650 1605V1711Q650 1786 720 1786H852Q922 1786 922 1711V1605Q922 1530 852 1530H720Z" />
<glyph unicode="&#xd0;" glyph-name="Eth" horiz-adv-x="1500" d="M105 612Q30 612 30 677V795Q30 860 105 860H210V1359Q210 1434 280 1434H629Q1089 1434 1251 1248T1414 719Q1414 376 1252 188T629 0H280Q210 0 210 75V612H105ZM502 248H610Q920 248 1011 363T1102
719Q1102 959 1011 1073T610 1188H502V860H741Q816 860 816 795V677Q816 612 741 612H502V248Z" />
<glyph unicode="&#xd1;" glyph-name="Ntilde" horiz-adv-x="1472" d="M357 1583Q323 1604 349 1647Q386 1708 441 1746T594 1785Q664 1785 758 1739T891 1693Q926 1693 958 1710T1007 1752Q1034 1794 1067 1774L1115 1745Q1149 1724 1123 1681Q1086 1620 1031
1582T878 1543Q804 1543 714 1589T581 1635Q546 1635 514 1618T465 1576Q438 1534 405 1554L357 1583ZM230 0Q160 0 160 75V1359Q160 1434 230 1434H378Q464 1434 508 1364L1018 545H1025Q1020 605 1020 665V1359Q1020 1434 1090 1434H1242Q1312 1434 1312 1359V75Q1312
0 1242 0H1104Q1018 0 974 70L454 904H447Q452 844 452 784V75Q452 0 382 0H230Z" />
<glyph unicode="&#xd2;" glyph-name="Ograve" horiz-adv-x="1544" d="M905 1540H802Q732 1540 691 1578L533 1724Q467 1785 557 1785H733Q811 1785 842 1738L930 1604Q972 1540 905 1540ZM86 717Q86 1062 264 1265T772 1468Q1102 1468 1280 1265T1458 717Q1458
372 1280 169T772 -34Q442 -34 264 169T86 717ZM398 717Q398 467 487 335T772 202Q967 202 1056 334T1146 717Q1146 967 1057 1099T772 1232Q577 1232 488 1100T398 717Z" />
<glyph unicode="&#xd3;" glyph-name="Oacute" horiz-adv-x="1544" d="M86 717Q86 1062 264 1265T772 1468Q1102 1468 1280 1265T1458 717Q1458 372 1280 169T772 -34Q442 -34 264 169T86 717ZM398 717Q398 467 487 335T772 202Q967 202 1056 334T1146 717Q1146
967 1057 1099T772 1232Q577 1232 488 1100T398 717ZM639 1540Q572 1540 614 1604L702 1738Q733 1785 811 1785H987Q1077 1785 1011 1724L853 1578Q812 1540 742 1540H639Z" />
<glyph unicode="&#xd4;" glyph-name="Ocircumflex" horiz-adv-x="1544" d="M384 1585Q365 1632 423 1655L667 1753Q699 1766 742 1766H802Q845 1766 877 1753L1121 1655Q1179 1632 1160 1585L1140 1535Q1121 1488 1064 1512L773 1632H771L480 1512Q423 1488 404
1535L384 1585ZM86 717Q86 1062 264 1265T772 1468Q1102 1468 1280 1265T1458 717Q1458 372 1280 169T772 -34Q442 -34 264 169T86 717ZM398 717Q398 467 487 335T772 202Q967 202 1056 334T1146 717Q1146 967 1057 1099T772 1232Q577 1232 488 1100T398 717Z"
/>
<glyph unicode="&#xd5;" glyph-name="Otilde" horiz-adv-x="1544" d="M393 1583Q359 1604 385 1647Q422 1708 477 1746T630 1785Q700 1785 794 1739T927 1693Q962 1693 994 1710T1043 1752Q1070 1794 1103 1774L1151 1745Q1185 1724 1159 1681Q1122 1620 1067
1582T914 1543Q840 1543 750 1589T617 1635Q582 1635 550 1618T501 1576Q474 1534 441 1554L393 1583ZM86 717Q86 1062 264 1265T772 1468Q1102 1468 1280 1265T1458 717Q1458 372 1280 169T772 -34Q442 -34 264 169T86 717ZM398 717Q398 467 487 335T772 202Q967
202 1056 334T1146 717Q1146 967 1057 1099T772 1232Q577 1232 488 1100T398 717Z" />
<glyph unicode="&#xd6;" glyph-name="Odieresis" horiz-adv-x="1544" d="M86 717Q86 1062 264 1265T772 1468Q1102 1468 1280 1265T1458 717Q1458 372 1280 169T772 -34Q442 -34 264 169T86 717ZM398 717Q398 467 487 335T772 202Q967 202 1056 334T1146 717Q1146
967 1057 1099T772 1232Q577 1232 488 1100T398 717ZM447 1530Q377 1530 377 1605V1711Q377 1786 447 1786H599Q669 1786 669 1711V1605Q669 1530 599 1530H447ZM955 1530Q885 1530 885 1605V1711Q885 1786 955 1786H1107Q1177 1786 1177 1711V1605Q1177 1530 1107
1530H955Z" />
<glyph unicode="&#xd7;" glyph-name="multiply" horiz-adv-x="1280" d="M209 356Q174 391 216 434L507 725L216 1017Q174 1059 209 1094L270 1155Q305 1190 348 1148L639 857L930 1148Q972 1190 1008 1155L1069 1094Q1104 1059 1062 1017L770 725L1062 434Q1104
392 1069 356L1008 295Q973 260 930 302L639 594L348 302Q306 260 270 295L209 356Z" />
<glyph unicode="&#xd8;" glyph-name="Oslash" horiz-adv-x="1544" d="M86 717Q86 1062 264 1265T772 1468Q1024 1468 1187 1350L1307 1483Q1347 1528 1388 1491L1477 1410Q1518 1374 1478 1329L1343 1179Q1458 994 1458 717Q1458 372 1280 169T772 -34Q520 -34
357 84L237 -49Q197 -94 156 -57L67 24Q26 61 66 105L201 255Q86 440 86 717ZM398 717Q398 593 420 498L1010 1153Q922 1232 772 1232Q577 1232 488 1100T398 717ZM534 281Q622 202 772 202Q967 202 1056 334T1146 717Q1146 841 1124 936L534 281Z" />
<glyph unicode="&#xd9;" glyph-name="Ugrave" horiz-adv-x="1422" d="M844 1540H741Q671 1540 630 1578L472 1724Q406 1785 496 1785H672Q750 1785 781 1738L869 1604Q911 1540 844 1540ZM160 597V1379Q160 1434 230 1434H382Q452 1434 452 1379V607Q452 337 531
270T711 202Q811 202 890 269T970 607V1379Q970 1434 1040 1434H1192Q1262 1434 1262 1379V597Q1262 247 1114 107T711 -34Q456 -34 308 106T160 597Z" />
<glyph unicode="&#xda;" glyph-name="Uacute" horiz-adv-x="1422" d="M578 1540Q511 1540 553 1604L641 1738Q672 1785 750 1785H926Q1016 1785 950 1724L792 1578Q751 1540 681 1540H578ZM160 597V1379Q160 1434 230 1434H382Q452 1434 452 1379V607Q452 337
531 270T711 202Q811 202 890 269T970 607V1379Q970 1434 1040 1434H1192Q1262 1434 1262 1379V597Q1262 247 1114 107T711 -34Q456 -34 308 106T160 597Z" />
<glyph unicode="&#xdb;" glyph-name="Ucircumflex" horiz-adv-x="1422" d="M323 1585Q304 1632 362 1655L606 1753Q638 1766 681 1766H741Q784 1766 816 1753L1060 1655Q1118 1632 1099 1585L1079 1535Q1060 1488 1003 1512L712 1632H710L419 1512Q362 1488 343
1535L323 1585ZM160 597V1379Q160 1434 230 1434H382Q452 1434 452 1379V607Q452 337 531 270T711 202Q811 202 890 269T970 607V1379Q970 1434 1040 1434H1192Q1262 1434 1262 1379V597Q1262 247 1114 107T711 -34Q456 -34 308 106T160 597Z" />
<glyph unicode="&#xdc;" glyph-name="Udieresis" horiz-adv-x="1422" d="M381 1530Q311 1530 311 1605V1711Q311 1786 381 1786H533Q603 1786 603 1711V1605Q603 1530 533 1530H381ZM889 1530Q819 1530 819 1605V1711Q819 1786 889 1786H1041Q1111 1786 1111 1711V1605Q1111
1530 1041 1530H889ZM160 597V1379Q160 1434 230 1434H382Q452 1434 452 1379V607Q452 337 531 270T711 202Q811 202 890 269T970 607V1379Q970 1434 1040 1434H1192Q1262 1434 1262 1379V597Q1262 247 1114 107T711 -34Q456 -34 308 106T160 597Z" />
<glyph unicode="&#xdd;" glyph-name="Yacute" horiz-adv-x="1368" d="M551 1540Q484 1540 526 1604L614 1738Q645 1785 723 1785H899Q989 1785 923 1724L765 1578Q724 1540 654 1540H551ZM51 1348Q0 1434 98 1434H273Q325 1434 365 1365L578 994Q587 979 631 901T682
748H686Q693 822 737 900T790 994L1003 1365Q1043 1434 1095 1434H1270Q1368 1434 1317 1348L830 525V55Q830 0 760 0H608Q538 0 538 55V525L51 1348Z" />
<glyph unicode="&#xde;" glyph-name="Thorn" horiz-adv-x="1312" d="M230 -11Q160 -11 160 64V1363Q160 1438 230 1438H382Q452 1438 452 1363V1198H608Q928 1198 1075 1084T1222 750Q1222 530 1075 416T608 302H452V64Q452 -11 382 -11H230ZM452 546H615Q776
546 848 593T920 750Q920 860 848 907T615 954H452V546Z" />
<glyph unicode="&#xdf;" glyph-name="germandbls" horiz-adv-x="1337" d="M196 0Q136 0 136 60V1110Q136 1311 288 1403T654 1496Q894 1496 1007 1395T1120 1150Q1120 1032 1051 946T864 798V795Q1024 784 1133 677T1243 376Q1243 212 1138 96T800 -20Q738 -20
670 -7T559 34Q518 60 534 98L580 208Q599 254 646 221Q666 207 703 192T780 176Q854 176 900 236T947 399Q947 500 880 568T686 640Q659 641 647 675L602 807Q593 835 626 859L682 900Q782 973 811 1019T840 1141Q840 1208 799 1254T656 1300Q552 1300 484 1248T416
1040V60Q416 0 356 0H196Z" />
<glyph unicode="&#xe0;" glyph-name="agrave" horiz-adv-x="1123" d="M321 1376Q269 1435 343 1435H495Q573 1435 601 1388L709 1209Q745 1150 688 1150H587Q518 1150 486 1187L321 1376ZM80 280Q80 480 271 570T707 666V706Q707 798 661 836T533 874Q475 874
431 858T354 820T295 776Q249 736 219 772L136 874Q105 912 151 952Q186 983 232 1006T356 1049T556 1070Q764 1070 875 974T987 691V60Q987 0 927 0H763Q709 0 709 60V90H707Q648 33 566 7T414 -20Q250 -20 165 60T80 280ZM376 286Q376 251 390 226T434 188T501
176Q552 176 600 190T707 256V473Q539 454 482 424T401 362T376 286Z" />
<glyph unicode="&#xe1;" glyph-name="aacute" horiz-adv-x="1123" d="M424 1150Q367 1150 403 1209L511 1388Q539 1435 617 1435H769Q843 1435 791 1376L626 1187Q594 1150 525 1150H424ZM80 280Q80 480 271 570T707 666V706Q707 798 661 836T533 874Q475 874
431 858T354 820T295 776Q249 736 219 772L136 874Q105 912 151 952Q186 983 232 1006T356 1049T556 1070Q764 1070 875 974T987 691V60Q987 0 927 0H763Q709 0 709 60V90H707Q648 33 566 7T414 -20Q250 -20 165 60T80 280ZM376 286Q376 251 390 226T434 188T501
176Q552 176 600 190T707 256V473Q539 454 482 424T401 362T376 286Z" />
<glyph unicode="&#xe2;" glyph-name="acircumflex" horiz-adv-x="1123" d="M241 1186Q212 1227 262 1262L469 1407Q508 1434 537 1434H575Q604 1434 643 1407L850 1262Q900 1227 871 1186L846 1150Q816 1109 768 1144L557 1295H555L344 1144Q295 1109 266 1150L241
1186ZM80 280Q80 480 271 570T707 666V706Q707 798 661 836T533 874Q475 874 431 858T354 820T295 776Q249 736 219 772L136 874Q105 912 151 952Q186 983 232 1006T356 1049T556 1070Q764 1070 875 974T987 691V60Q987 0 927 0H763Q709 0 709 60V90H707Q648 33
566 7T414 -20Q250 -20 165 60T80 280ZM376 286Q376 251 390 226T434 188T501 176Q552 176 600 190T707 256V473Q539 454 482 424T401 362T376 286Z" />
<glyph unicode="&#xe3;" glyph-name="atilde" horiz-adv-x="1123" d="M237 1184Q206 1198 222 1245Q244 1308 299 1352T435 1396Q503 1396 579 1344T690 1292Q721 1292 742 1305T779 1349Q800 1392 833 1377L875 1358Q906 1344 890 1297Q868 1234 813 1190T677
1146Q609 1146 533 1198T422 1250Q391 1250 370 1237T333 1193Q312 1150 279 1165L237 1184ZM80 280Q80 480 271 570T707 666V706Q707 798 661 836T533 874Q475 874 431 858T354 820T295 776Q249 736 219 772L136 874Q105 912 151 952Q186 983 232 1006T356 1049T556
1070Q764 1070 875 974T987 691V60Q987 0 927 0H763Q709 0 709 60V90H707Q648 33 566 7T414 -20Q250 -20 165 60T80 280ZM376 286Q376 251 390 226T434 188T501 176Q552 176 600 190T707 256V473Q539 454 482 424T401 362T376 286Z" />
<glyph unicode="&#xe4;" glyph-name="adieresis" horiz-adv-x="1123" d="M80 280Q80 480 271 570T707 666V706Q707 798 661 836T533 874Q475 874 431 858T354 820T295 776Q249 736 219 772L136 874Q105 912 151 952Q186 983 232 1006T356 1049T556 1070Q764 1070
875 974T987 691V60Q987 0 927 0H763Q709 0 709 60V90H707Q648 33 566 7T414 -20Q250 -20 165 60T80 280ZM376 286Q376 251 390 226T434 188T501 176Q552 176 600 190T707 256V473Q539 454 482 424T401 362T376 286ZM287 1206Q227 1206 227 1266V1382Q227 1442
287 1442H403Q463 1442 463 1382V1266Q463 1206 403 1206H287ZM713 1206Q653 1206 653 1266V1382Q653 1442 713 1442H829Q889 1442 889 1382V1266Q889 1206 829 1206H713Z" />
<glyph unicode="&#xe5;" glyph-name="aring" horiz-adv-x="1123" d="M367 1313Q367 1390 422 1444T556 1499Q635 1499 690 1445T745 1313Q745 1236 690 1182T556 1127Q477 1127 422 1181T367 1313ZM462 1313Q462 1273 489 1246T556 1219Q596 1219 623 1246T650
1313Q650 1353 623 1380T556 1407Q516 1407 489 1380T462 1313ZM80 280Q80 480 271 570T707 666V706Q707 798 661 836T533 874Q475 874 431 858T354 820T295 776Q249 736 219 772L136 874Q105 912 151 952Q186 983 232 1006T356 1049T556 1070Q764 1070 875 974T987
691V60Q987 0 927 0H763Q709 0 709 60V90H707Q648 33 566 7T414 -20Q250 -20 165 60T80 280ZM376 286Q376 251 390 226T434 188T501 176Q552 176 600 190T707 256V473Q539 454 482 424T401 362T376 286Z" />
<glyph unicode="&#xe6;" glyph-name="ae" horiz-adv-x="1765" d="M80 280Q80 480 268 570T697 666V706Q697 798 651 836T527 874Q469 874 425 856T350 818T295 776Q249 736 219 772L136 874Q105 912 151 952Q189 986 239 1009T362 1051T552 1070Q636 1070 716
1051T859 976H862Q912 1024 994 1047T1160 1070Q1428 1070 1555 932T1683 488Q1683 428 1627 428H977Q988 280 1054 228T1202 176Q1270 176 1324 197T1410 258Q1446 303 1494 272L1587 211Q1645 173 1604 125Q1543 52 1464 16T1207 -20Q1044 -20 943 19T779 146H777Q714
76 616 28T424 -20Q246 -20 163 60T80 280ZM376 286Q376 256 388 229T431 189T495 176Q543 176 595 200T710 284Q699 360 697 473Q543 453 486 426T403 366T376 286ZM977 628H1403Q1403 736 1352 804T1182 873Q1088 873 1035 808T977 628Z" />
<glyph unicode="&#xe7;" glyph-name="ccedilla" horiz-adv-x="1086" d="M80 525Q80 780 208 925T601 1070Q756 1070 842 1029T980 909Q1011 862 970 835L864 765Q819 735 785 788Q768 814 720 844T601 874Q488 874 432 795T376 525Q376 335 432 256T601 176Q682
176 732 210T826 298Q864 344 906 311L999 238Q1041 205 1004 150Q965 92 872 36T601 -20Q336 -20 208 125T80 525ZM381 -401Q353 -393 363 -359L376 -314Q387 -277 422 -291Q456 -304 502 -304Q543 -304 566 -291T590 -248Q590 -223 566 -210T487 -197H466Q432
-197 432 -162Q432 -121 446 -94L494 0Q505 22 534 22H617Q647 22 636 0L591 -88V-91Q677 -103 711 -142T745 -244Q745 -340 679 -379T513 -419Q444 -419 381 -401Z" />
<glyph unicode="&#xe8;" glyph-name="egrave" horiz-adv-x="1174" d="M329 1376Q277 1435 351 1435H503Q581 1435 609 1388L717 1209Q753 1150 696 1150H595Q526 1150 494 1187L329 1376ZM80 525Q80 778 206 924T564 1070Q832 1070 962 932T1092 488Q1092 428
1036 428H376Q392 262 458 219T611 176Q694 176 738 198T812 258Q846 302 896 272L996 211Q1055 175 1013 125Q952 52 870 16T611 -20Q324 -20 202 126T80 525ZM377 628H812Q812 736 758 804T586 873Q492 873 437 808T377 628Z" />
<glyph unicode="&#xe9;" glyph-name="eacute" horiz-adv-x="1174" d="M432 1150Q375 1150 411 1209L519 1388Q547 1435 625 1435H777Q851 1435 799 1376L634 1187Q602 1150 533 1150H432ZM80 525Q80 778 206 924T564 1070Q832 1070 962 932T1092 488Q1092 428
1036 428H376Q392 262 458 219T611 176Q694 176 738 198T812 258Q846 302 896 272L996 211Q1055 175 1013 125Q952 52 870 16T611 -20Q324 -20 202 126T80 525ZM377 628H812Q812 736 758 804T586 873Q492 873 437 808T377 628Z" />
<glyph unicode="&#xea;" glyph-name="ecircumflex" horiz-adv-x="1174" d="M249 1186Q220 1227 270 1262L477 1407Q516 1434 545 1434H583Q612 1434 651 1407L858 1262Q908 1227 879 1186L854 1150Q824 1109 776 1144L565 1295H563L352 1144Q303 1109 274 1150L249
1186ZM80 525Q80 778 206 924T564 1070Q832 1070 962 932T1092 488Q1092 428 1036 428H376Q392 262 458 219T611 176Q694 176 738 198T812 258Q846 302 896 272L996 211Q1055 175 1013 125Q952 52 870 16T611 -20Q324 -20 202 126T80 525ZM377 628H812Q812 736
758 804T586 873Q492 873 437 808T377 628Z" />
<glyph unicode="&#xeb;" glyph-name="edieresis" horiz-adv-x="1174" d="M319 1206Q259 1206 259 1266V1382Q259 1442 319 1442H435Q495 1442 495 1382V1266Q495 1206 435 1206H319ZM745 1206Q685 1206 685 1266V1382Q685 1442 745 1442H861Q921 1442 921 1382V1266Q921
1206 861 1206H745ZM80 525Q80 778 206 924T564 1070Q832 1070 962 932T1092 488Q1092 428 1036 428H376Q392 262 458 219T611 176Q694 176 738 198T812 258Q846 302 896 272L996 211Q1055 175 1013 125Q952 52 870 16T611 -20Q324 -20 202 126T80 525ZM377 628H812Q812
736 758 804T586 873Q492 873 437 808T377 628Z" />
<glyph unicode="&#xec;" glyph-name="igrave" horiz-adv-x="552" d="M41 1376Q-11 1435 63 1435H215Q293 1435 321 1388L429 1209Q465 1150 408 1150H307Q238 1150 206 1187L41 1376ZM196 0Q136 0 136 60V990Q136 1050 196 1050H356Q416 1050 416 990V60Q416 0
356 0H196Z" />
<glyph unicode="&#xed;" glyph-name="iacute" horiz-adv-x="552" d="M144 1150Q87 1150 123 1209L231 1388Q259 1435 337 1435H489Q563 1435 511 1376L346 1187Q314 1150 245 1150H144ZM196 0Q136 0 136 60V990Q136 1050 196 1050H356Q416 1050 416 990V60Q416
0 356 0H196Z" />
<glyph unicode="&#xee;" glyph-name="icircumflex" horiz-adv-x="552" d="M-39 1186Q-68 1227 -18 1262L189 1407Q228 1434 257 1434H295Q324 1434 363 1407L570 1262Q620 1227 591 1186L566 1150Q536 1109 488 1144L277 1295H275L64 1144Q15 1109 -14 1150L-39
1186ZM196 0Q136 0 136 60V990Q136 1050 196 1050H356Q416 1050 416 990V60Q416 0 356 0H196Z" />
<glyph unicode="&#xef;" glyph-name="idieresis" horiz-adv-x="552" d="M196 0Q136 0 136 60V990Q136 1050 196 1050H356Q416 1050 416 990V60Q416 0 356 0H196ZM299 1210Q239 1210 239 1270V1378Q239 1438 299 1438H407Q467 1438 467 1378V1270Q467 1210 407
1210H299ZM657 1210Q597 1210 597 1270V1378Q597 1438 657 1438H765Q825 1438 825 1378V1270Q825 1210 765 1210H657Z" />
<glyph unicode="&#xf0;" glyph-name="eth" horiz-adv-x="1206" d="M80 518Q80 763 209 899T562 1035Q672 1035 739 1008T867 909H876Q828 1029 739 1102T602 1207L454 1125Q402 1096 378 1139L341 1205Q317 1248 370 1278L422 1307Q399 1317 375 1327Q325 1348
351 1394L398 1476Q420 1515 479 1492Q558 1461 630 1422L746 1486Q798 1515 822 1472L859 1406Q882 1366 830 1333L795 1310Q886 1238 1002 1078T1119 595Q1119 264 991 122T603 -20Q343 -20 212 126T80 518ZM376 508Q376 333 434 255T603 176Q713 176 771 254T830
508Q830 683 772 761T603 839Q493 839 435 761T376 508Z" />
<glyph unicode="&#xf1;" glyph-name="ntilde" horiz-adv-x="1200" d="M282 1184Q251 1198 267 1245Q289 1308 344 1352T480 1396Q548 1396 624 1344T735 1292Q766 1292 787 1305T824 1349Q845 1392 878 1377L920 1358Q951 1344 935 1297Q913 1234 858 1190T722
1146Q654 1146 578 1198T467 1250Q436 1250 415 1237T378 1193Q357 1150 324 1165L282 1184ZM196 0Q136 0 136 60V990Q136 1050 196 1050H354Q414 1050 414 990V932H418Q464 1011 535 1040T706 1070Q862 1070 964 972T1066 614V60Q1066 0 1006 0H846Q786 0 786
60V542Q786 760 756 817T627 874Q522 874 469 793T416 454V60Q416 0 356 0H196Z" />
<glyph unicode="&#xf2;" glyph-name="ograve" horiz-adv-x="1206" d="M368 1376Q316 1435 390 1435H542Q620 1435 648 1388L756 1209Q792 1150 735 1150H634Q565 1150 533 1187L368 1376ZM80 525Q80 780 211 925T603 1070Q863 1070 994 925T1126 525Q1126 270
995 125T603 -20Q343 -20 212 125T80 525ZM376 525Q376 335 434 256T603 176Q713 176 771 255T830 525Q830 715 772 794T603 874Q493 874 435 795T376 525Z" />
<glyph unicode="&#xf3;" glyph-name="oacute" horiz-adv-x="1206" d="M80 525Q80 780 211 925T603 1070Q863 1070 994 925T1126 525Q1126 270 995 125T603 -20Q343 -20 212 125T80 525ZM376 525Q376 335 434 256T603 176Q713 176 771 255T830 525Q830 715 772
794T603 874Q493 874 435 795T376 525ZM471 1150Q414 1150 450 1209L558 1388Q586 1435 664 1435H816Q890 1435 838 1376L673 1187Q641 1150 572 1150H471Z" />
<glyph unicode="&#xf4;" glyph-name="ocircumflex" horiz-adv-x="1206" d="M288 1186Q259 1227 309 1262L516 1407Q555 1434 584 1434H622Q651 1434 690 1407L897 1262Q947 1227 918 1186L893 1150Q863 1109 815 1144L604 1295H602L391 1144Q342 1109 313 1150L288
1186ZM80 525Q80 780 211 925T603 1070Q863 1070 994 925T1126 525Q1126 270 995 125T603 -20Q343 -20 212 125T80 525ZM376 525Q376 335 434 256T603 176Q713 176 771 255T830 525Q830 715 772 794T603 874Q493 874 435 795T376 525Z" />
<glyph unicode="&#xf5;" glyph-name="otilde" horiz-adv-x="1206" d="M284 1184Q253 1198 269 1245Q291 1308 346 1352T482 1396Q550 1396 626 1344T737 1292Q768 1292 789 1305T826 1349Q847 1392 880 1377L922 1358Q953 1344 937 1297Q915 1234 860 1190T724
1146Q656 1146 580 1198T469 1250Q438 1250 417 1237T380 1193Q359 1150 326 1165L284 1184ZM80 525Q80 780 211 925T603 1070Q863 1070 994 925T1126 525Q1126 270 995 125T603 -20Q343 -20 212 125T80 525ZM376 525Q376 335 434 256T603 176Q713 176 771 255T830
525Q830 715 772 794T603 874Q493 874 435 795T376 525Z" />
<glyph unicode="&#xf6;" glyph-name="odieresis" horiz-adv-x="1206" d="M80 525Q80 780 211 925T603 1070Q863 1070 994 925T1126 525Q1126 270 995 125T603 -20Q343 -20 212 125T80 525ZM376 525Q376 335 434 256T603 176Q713 176 771 255T830 525Q830 715 772
794T603 874Q493 874 435 795T376 525ZM332 1206Q272 1206 272 1266V1382Q272 1442 332 1442H448Q508 1442 508 1382V1266Q508 1206 448 1206H332ZM758 1206Q698 1206 698 1266V1382Q698 1442 758 1442H874Q934 1442 934 1382V1266Q934 1206 874 1206H758Z" />
<glyph unicode="&#xf7;" glyph-name="divide" horiz-adv-x="1280" d="M564 198Q494 198 494 273V407Q494 482 564 482H716Q786 482 786 407V273Q786 198 716 198H564ZM564 968Q494 968 494 1043V1177Q494 1252 564 1252H716Q786 1252 786 1177V1043Q786 968 716
968H564ZM135 632Q75 632 75 682V768Q75 818 135 818H1145Q1205 818 1205 768V682Q1205 632 1145 632H135Z" />
<glyph unicode="&#xf8;" glyph-name="oslash" horiz-adv-x="1206" d="M80 525Q80 780 211 925T603 1070Q780 1070 898 1002L949 1059Q989 1104 1026 1070L1101 1003Q1138 970 1098 925L1042 863Q1126 729 1126 525Q1126 270 995 125T603 -20Q426 -20 308 48L257
-9Q217 -54 180 -20L105 47Q68 80 108 125L164 187Q80 321 80 525ZM376 525Q376 472 381 428L741 828Q687 874 603 874Q493 874 435 795T376 525ZM465 222Q519 176 603 176Q713 176 771 255T830 525Q830 578 825 622L465 222Z" />
<glyph unicode="&#xf9;" glyph-name="ugrave" horiz-adv-x="1194" d="M361 1376Q309 1435 383 1435H535Q613 1435 641 1388L749 1209Q785 1150 728 1150H627Q558 1150 526 1187L361 1376ZM134 436V990Q134 1050 194 1050H354Q414 1050 414 990V508Q414 290 444
233T570 176Q672 176 725 257T778 596V990Q778 1050 838 1050H998Q1058 1050 1058 990V60Q1058 0 998 0H840Q780 0 780 60V118H776Q730 39 659 10T491 -20Q338 -20 236 78T134 436Z" />
<glyph unicode="&#xfa;" glyph-name="uacute" horiz-adv-x="1194" d="M464 1150Q407 1150 443 1209L551 1388Q579 1435 657 1435H809Q883 1435 831 1376L666 1187Q634 1150 565 1150H464ZM134 436V990Q134 1050 194 1050H354Q414 1050 414 990V508Q414 290 444
233T570 176Q672 176 725 257T778 596V990Q778 1050 838 1050H998Q1058 1050 1058 990V60Q1058 0 998 0H840Q780 0 780 60V118H776Q730 39 659 10T491 -20Q338 -20 236 78T134 436Z" />
<glyph unicode="&#xfb;" glyph-name="ucircumflex" horiz-adv-x="1194" d="M281 1186Q252 1227 302 1262L509 1407Q548 1434 577 1434H615Q644 1434 683 1407L890 1262Q940 1227 911 1186L886 1150Q856 1109 808 1144L597 1295H595L384 1144Q335 1109 306 1150L281
1186ZM134 436V990Q134 1050 194 1050H354Q414 1050 414 990V508Q414 290 444 233T570 176Q672 176 725 257T778 596V990Q778 1050 838 1050H998Q1058 1050 1058 990V60Q1058 0 998 0H840Q780 0 780 60V118H776Q730 39 659 10T491 -20Q338 -20 236 78T134 436Z"
/>
<glyph unicode="&#xfc;" glyph-name="udieresis" horiz-adv-x="1194" d="M325 1206Q265 1206 265 1266V1382Q265 1442 325 1442H441Q501 1442 501 1382V1266Q501 1206 441 1206H325ZM751 1206Q691 1206 691 1266V1382Q691 1442 751 1442H867Q927 1442 927 1382V1266Q927
1206 867 1206H751ZM134 436V990Q134 1050 194 1050H354Q414 1050 414 990V508Q414 290 444 233T570 176Q672 176 725 257T778 596V990Q778 1050 838 1050H998Q1058 1050 1058 990V60Q1058 0 998 0H840Q780 0 780 60V118H776Q730 39 659 10T491 -20Q338 -20 236
78T134 436Z" />
<glyph unicode="&#xfd;" glyph-name="yacute" horiz-adv-x="990" d="M374 1150Q317 1150 353 1209L461 1388Q489 1435 567 1435H719Q793 1435 741 1376L576 1187Q544 1150 475 1150H374ZM44 972Q17 1050 77 1050H256Q302 1050 316 999L467 440Q478 401 486 340T495
261H501Q513 314 518 345T549 468L692 999Q706 1050 752 1050H931Q990 1050 964 972L627 -42Q568 -220 482 -320T243 -420Q159 -420 93 -406Q55 -398 64 -354L86 -244Q95 -201 137 -214Q168 -224 195 -224Q276 -224 318 -147T375 -15L378 0L44 972Z" />
<glyph unicode="&#xfe;" glyph-name="thorn" horiz-adv-x="1192" d="M196 -400Q136 -400 136 -340V1416Q136 1476 196 1476H356Q416 1476 416 1416V1012Q416 972 412 932H416Q468 1018 532 1044T686 1070Q921 1070 1016 908T1112 525Q1112 305 1017 143T686 -20Q596
-20 532 6T416 118H412Q416 78 416 38V-340Q416 -400 356 -400H196ZM416 480Q416 345 469 261T598 176Q733 176 774 270T816 525Q816 685 775 779T598 874Q523 874 470 790T416 570V480Z" />
<glyph unicode="&#xff;" glyph-name="ydieresis" horiz-adv-x="990" d="M235 1206Q175 1206 175 1266V1382Q175 1442 235 1442H351Q411 1442 411 1382V1266Q411 1206 351 1206H235ZM661 1206Q601 1206 601 1266V1382Q601 1442 661 1442H777Q837 1442 837 1382V1266Q837
1206 777 1206H661ZM44 972Q17 1050 77 1050H256Q302 1050 316 999L467 440Q478 401 486 340T495 261H501Q513 314 518 345T549 468L692 999Q706 1050 752 1050H931Q990 1050 964 972L627 -42Q568 -220 482 -320T243 -420Q159 -420 93 -406Q55 -398 64 -354L86
-244Q95 -201 137 -214Q168 -224 195 -224Q276 -224 318 -147T375 -15L378 0L44 972Z" />
<glyph unicode="&#x2013;" glyph-name="endash" horiz-adv-x="1024" d="M95 453Q35 453 35 503V603Q35 653 95 653H929Q989 653 989 603V503Q989 453 929 453H95Z" />
<glyph unicode="&#x2014;" glyph-name="emdash" horiz-adv-x="2048" d="M95 453Q35 453 35 503V603Q35 653 95 653H1953Q2013 653 2013 603V503Q2013 453 1953 453H95Z" />
<glyph unicode="&#x2018;" glyph-name="quoteleft" horiz-adv-x="570" d="M107 1254Q177 1254 177 1179V1045Q177 970 107 970H-49Q-119 970 -119 1045V1179Q-119 1308 -102 1395T-15 1537Q36 1576 65 1545L103 1504Q139 1466 92 1429Q60 1404 49 1364T38 1254H107Z" />
<glyph unicode="&#x2019;" glyph-name="quoteright" horiz-adv-x="570" d="M463 1184Q393 1184 393 1259V1393Q393 1468 463 1468H619Q689 1468 689 1393V1259Q689 1130 672 1043T585 901Q534 862 505 893L467 934Q431 972 478 1009Q510 1034 521 1074T532 1184H463Z" />
<glyph unicode="&#x201a;" glyph-name="quotesinglbase" horiz-adv-x="570" d="M463 0Q393 0 393 75V209Q393 284 463 284H619Q689 284 689 209V75Q689 -54 672 -141T585 -283Q534 -322 505 -291L467 -250Q431 -212 478 -175Q510 -150 521 -110T532 0H463Z" />
<glyph unicode="&#x201c;" glyph-name="quotedblleft" horiz-adv-x="916" d="M490 1254Q560 1254 560 1179V1045Q560 970 490 970H334Q264 970 264 1045V1179Q264 1308 281 1395T368 1537Q419 1576 448 1545L486 1504Q522 1466 475 1429Q443 1404 432 1364T421
1254H490ZM326 1254Q396 1254 396 1179V1045Q396 970 326 970H170Q100 970 100 1045V1179Q100 1308 117 1395T204 1537Q255 1576 284 1545L322 1504Q358 1466 311 1429Q279 1404 268 1364T257 1254H326Z" />
<glyph unicode="&#x201d;" glyph-name="quotedblright" horiz-adv-x="916" d="M846 1184Q776 1184 776 1259V1393Q776 1468 846 1468H1002Q1072 1468 1072 1393V1259Q1072 1130 1055 1043T968 901Q917 862 888 893L850 934Q814 972 861 1009Q893 1034 904 1074T915
1184H846ZM682 1184Q612 1184 612 1259V1393Q612 1468 682 1468H838Q908 1468 908 1393V1259Q908 1130 891 1043T804 901Q753 862 724 893L686 934Q650 972 697 1009Q729 1034 740 1074T751 1184H682Z" />
<glyph unicode="&#x201e;" glyph-name="quotedblbase" horiz-adv-x="916" d="M846 0Q776 0 776 75V209Q776 284 846 284H1002Q1072 284 1072 209V75Q1072 -54 1055 -141T968 -283Q917 -322 888 -291L850 -250Q814 -212 861 -175Q893 -150 904 -110T915 0H846ZM682
0Q612 0 612 75V209Q612 284 682 284H838Q908 284 908 209V75Q908 -54 891 -141T804 -283Q753 -322 724 -291L686 -250Q650 -212 697 -175Q729 -150 740 -110T751 0H682Z" />
<glyph unicode="&#x2022;" glyph-name="bullet" horiz-adv-x="1024" d="M260 694Q260 798 334 872T512 946Q616 946 690 872T764 694Q764 590 690 516T512 442Q408 442 334 516T260 694Z" />
<glyph unicode="&#x2039;" glyph-name="guilsinglleft" horiz-adv-x="706" d="M121 498Q90 537 121 576L429 962Q457 997 489 972L577 902Q604 880 573 842L326 537L573 232Q604 194 577 172L489 102Q457 77 429 112L121 498Z" />
<glyph unicode="&#x203a;" glyph-name="guilsinglright" horiz-adv-x="706" d="M129 178Q102 200 133 238L380 543L133 848Q102 886 129 908L217 978Q249 1003 277 968L585 582Q616 543 585 504L277 118Q249 83 217 108L129 178Z" />
</font>
</defs>
</svg>
