<?xml version="1.0" standalone="no"?>
<!DOCTYPE svg PUBLIC "-//W3C//DTD SVG 1.1//EN" "http://www.w3.org/Graphics/SVG/1.1/DTD/svg11.dtd" >
<svg xmlns="http://www.w3.org/2000/svg">
<defs>
  <font id="text-security-disc" horiz-adv-x="160">
    <font-face font-family="text-security-disc"
      units-per-em="2000" ascent="2000"
      descent="0" />
    <missing-glyph horiz-adv-x="0" />
    <glyph glyph-name="disc"
      unicode="&#x0;"
      horiz-adv-x="800" d="M400 800M100 800A299.99999999999994 299.99999999999994 0 1 1 700 800A299.99999999999994 299.99999999999994 0 1 1 100 800" />
    <glyph glyph-name="disc-1"
      unicode="&#x1;"
      horiz-adv-x="800" d="M400 800M100 800A299.99999999999994 299.99999999999994 0 1 1 700 800A299.99999999999994 299.99999999999994 0 1 1 100 800" />
    <glyph glyph-name="disc-2"
      unicode="&#x2;"
      horiz-adv-x="800" d="M400 800M100 800A299.99999999999994 299.99999999999994 0 1 1 700 800A299.99999999999994 299.99999999999994 0 1 1 100 800" />
    <glyph glyph-name="disc-3"
      unicode="&#x3;"
      horiz-adv-x="800" d="M400 800M100 800A299.99999999999994 299.99999999999994 0 1 1 700 800A299.99999999999994 299.99999999999994 0 1 1 100 800" />
    <glyph glyph-name="disc-4"
      unicode="&#x4;"
      horiz-adv-x="800" d="M400 800M100 800A299.99999999999994 299.99999999999994 0 1 1 700 800A299.99999999999994 299.99999999999994 0 1 1 100 800" />
    <glyph glyph-name="disc-5"
      unicode="&#x5;"
      horiz-adv-x="800" d="M400 800M100 800A299.99999999999994 299.99999999999994 0 1 1 700 800A299.99999999999994 299.99999999999994 0 1 1 100 800" />
    <glyph glyph-name="disc-6"
      unicode="&#x6;"
      horiz-adv-x="800" d="M400 800M100 800A299.99999999999994 299.99999999999994 0 1 1 700 800A299.99999999999994 299.99999999999994 0 1 1 100 800" />
    <glyph glyph-name="disc-7"
      unicode="&#x7;"
      horiz-adv-x="800" d="M400 800M100 800A299.99999999999994 299.99999999999994 0 1 1 700 800A299.99999999999994 299.99999999999994 0 1 1 100 800" />
    <glyph glyph-name="disc-8"
      unicode="&#x8;"
      horiz-adv-x="800" d="M400 800M100 800A299.99999999999994 299.99999999999994 0 1 1 700 800A299.99999999999994 299.99999999999994 0 1 1 100 800" />
    <glyph glyph-name="disc-9"
      unicode="&#x9;"
      horiz-adv-x="800" d="M400 800M100 800A299.99999999999994 299.99999999999994 0 1 1 700 800A299.99999999999994 299.99999999999994 0 1 1 100 800" />
    <glyph glyph-name="disc-10"
      unicode="&#xA;"
      horiz-adv-x="800" d="M400 800M100 800A299.99999999999994 299.99999999999994 0 1 1 700 800A299.99999999999994 299.99999999999994 0 1 1 100 800" />
    <glyph glyph-name="disc-11"
      unicode="&#xB;"
      horiz-adv-x="800" d="M400 800M100 800A299.99999999999994 299.99999999999994 0 1 1 700 800A299.99999999999994 299.99999999999994 0 1 1 100 800" />
    <glyph glyph-name="disc-12"
      unicode="&#xC;"
      horiz-adv-x="800" d="M400 800M100 800A299.99999999999994 299.99999999999994 0 1 1 700 800A299.99999999999994 299.99999999999994 0 1 1 100 800" />
    <glyph glyph-name="disc-13"
      unicode="&#xD;"
      horiz-adv-x="800" d="M400 800M100 800A299.99999999999994 299.99999999999994 0 1 1 700 800A299.99999999999994 299.99999999999994 0 1 1 100 800" />
    <glyph glyph-name="disc-14"
      unicode="&#xE;"
      horiz-adv-x="800" d="M400 800M100 800A299.99999999999994 299.99999999999994 0 1 1 700 800A299.99999999999994 299.99999999999994 0 1 1 100 800" />
    <glyph glyph-name="disc-15"
      unicode="&#xF;"
      horiz-adv-x="800" d="M400 800M100 800A299.99999999999994 299.99999999999994 0 1 1 700 800A299.99999999999994 299.99999999999994 0 1 1 100 800" />
    <glyph glyph-name="disc-16"
      unicode="&#x10;"
      horiz-adv-x="800" d="M400 800M100 800A299.99999999999994 299.99999999999994 0 1 1 700 800A299.99999999999994 299.99999999999994 0 1 1 100 800" />
    <glyph glyph-name="disc-17"
      unicode="&#x11;"
      horiz-adv-x="800" d="M400 800M100 800A299.99999999999994 299.99999999999994 0 1 1 700 800A299.99999999999994 299.99999999999994 0 1 1 100 800" />
    <glyph glyph-name="disc-18"
      unicode="&#x12;"
      horiz-adv-x="800" d="M400 800M100 800A299.99999999999994 299.99999999999994 0 1 1 700 800A299.99999999999994 299.99999999999994 0 1 1 100 800" />
    <glyph glyph-name="disc-19"
      unicode="&#x13;"
      horiz-adv-x="800" d="M400 800M100 800A299.99999999999994 299.99999999999994 0 1 1 700 800A299.99999999999994 299.99999999999994 0 1 1 100 800" />
    <glyph glyph-name="disc-20"
      unicode="&#x14;"
      horiz-adv-x="800" d="M400 800M100 800A299.99999999999994 299.99999999999994 0 1 1 700 800A299.99999999999994 299.99999999999994 0 1 1 100 800" />
    <glyph glyph-name="disc-21"
      unicode="&#x15;"
      horiz-adv-x="800" d="M400 800M100 800A299.99999999999994 299.99999999999994 0 1 1 700 800A299.99999999999994 299.99999999999994 0 1 1 100 800" />
    <glyph glyph-name="disc-22"
      unicode="&#x16;"
      horiz-adv-x="800" d="M400 800M100 800A299.99999999999994 299.99999999999994 0 1 1 700 800A299.99999999999994 299.99999999999994 0 1 1 100 800" />
    <glyph glyph-name="disc-23"
      unicode="&#x17;"
      horiz-adv-x="800" d="M400 800M100 800A299.99999999999994 299.99999999999994 0 1 1 700 800A299.99999999999994 299.99999999999994 0 1 1 100 800" />
    <glyph glyph-name="disc-24"
      unicode="&#x18;"
      horiz-adv-x="800" d="M400 800M100 800A299.99999999999994 299.99999999999994 0 1 1 700 800A299.99999999999994 299.99999999999994 0 1 1 100 800" />
    <glyph glyph-name="disc-25"
      unicode="&#x19;"
      horiz-adv-x="800" d="M400 800M100 800A299.99999999999994 299.99999999999994 0 1 1 700 800A299.99999999999994 299.99999999999994 0 1 1 100 800" />
    <glyph glyph-name="disc-26"
      unicode="&#x1A;"
      horiz-adv-x="800" d="M400 800M100 800A299.99999999999994 299.99999999999994 0 1 1 700 800A299.99999999999994 299.99999999999994 0 1 1 100 800" />
    <glyph glyph-name="disc-27"
      unicode="&#x1B;"
      horiz-adv-x="800" d="M400 800M100 800A299.99999999999994 299.99999999999994 0 1 1 700 800A299.99999999999994 299.99999999999994 0 1 1 100 800" />
    <glyph glyph-name="disc-28"
      unicode="&#x1C;"
      horiz-adv-x="800" d="M400 800M100 800A299.99999999999994 299.99999999999994 0 1 1 700 800A299.99999999999994 299.99999999999994 0 1 1 100 800" />
    <glyph glyph-name="disc-29"
      unicode="&#x1D;"
      horiz-adv-x="800" d="M400 800M100 800A299.99999999999994 299.99999999999994 0 1 1 700 800A299.99999999999994 299.99999999999994 0 1 1 100 800" />
    <glyph glyph-name="disc-30"
      unicode="&#x1E;"
      horiz-adv-x="800" d="M400 800M100 800A299.99999999999994 299.99999999999994 0 1 1 700 800A299.99999999999994 299.99999999999994 0 1 1 100 800" />
    <glyph glyph-name="disc-31"
      unicode="&#x1F;"
      horiz-adv-x="800" d="M400 800M100 800A299.99999999999994 299.99999999999994 0 1 1 700 800A299.99999999999994 299.99999999999994 0 1 1 100 800" />
    <glyph glyph-name="disc-32"
      unicode="&#x20;"
      horiz-adv-x="800" d="M400 800M100 800A299.99999999999994 299.99999999999994 0 1 1 700 800A299.99999999999994 299.99999999999994 0 1 1 100 800" />
    <glyph glyph-name="disc-33"
      unicode="&#x21;"
      horiz-adv-x="800" d="M400 800M100 800A299.99999999999994 299.99999999999994 0 1 1 700 800A299.99999999999994 299.99999999999994 0 1 1 100 800" />
    <glyph glyph-name="disc-34"
      unicode="&#x22;"
      horiz-adv-x="800" d="M400 800M100 800A299.99999999999994 299.99999999999994 0 1 1 700 800A299.99999999999994 299.99999999999994 0 1 1 100 800" />
    <glyph glyph-name="disc-35"
      unicode="&#x23;"
      horiz-adv-x="800" d="M400 800M100 800A299.99999999999994 299.99999999999994 0 1 1 700 800A299.99999999999994 299.99999999999994 0 1 1 100 800" />
    <glyph glyph-name="disc-36"
      unicode="&#x24;"
      horiz-adv-x="800" d="M400 800M100 800A299.99999999999994 299.99999999999994 0 1 1 700 800A299.99999999999994 299.99999999999994 0 1 1 100 800" />
    <glyph glyph-name="disc-37"
      unicode="&#x25;"
      horiz-adv-x="800" d="M400 800M100 800A299.99999999999994 299.99999999999994 0 1 1 700 800A299.99999999999994 299.99999999999994 0 1 1 100 800" />
    <glyph glyph-name="disc-38"
      unicode="&#x26;"
      horiz-adv-x="800" d="M400 800M100 800A299.99999999999994 299.99999999999994 0 1 1 700 800A299.99999999999994 299.99999999999994 0 1 1 100 800" />
    <glyph glyph-name="disc-39"
      unicode="&#x27;"
      horiz-adv-x="800" d="M400 800M100 800A299.99999999999994 299.99999999999994 0 1 1 700 800A299.99999999999994 299.99999999999994 0 1 1 100 800" />
    <glyph glyph-name="disc-40"
      unicode="&#x28;"
      horiz-adv-x="800" d="M400 800M100 800A299.99999999999994 299.99999999999994 0 1 1 700 800A299.99999999999994 299.99999999999994 0 1 1 100 800" />
    <glyph glyph-name="disc-41"
      unicode="&#x29;"
      horiz-adv-x="800" d="M400 800M100 800A299.99999999999994 299.99999999999994 0 1 1 700 800A299.99999999999994 299.99999999999994 0 1 1 100 800" />
    <glyph glyph-name="disc-42"
      unicode="&#x2A;"
      horiz-adv-x="800" d="M400 800M100 800A299.99999999999994 299.99999999999994 0 1 1 700 800A299.99999999999994 299.99999999999994 0 1 1 100 800" />
    <glyph glyph-name="disc-43"
      unicode="&#x2B;"
      horiz-adv-x="800" d="M400 800M100 800A299.99999999999994 299.99999999999994 0 1 1 700 800A299.99999999999994 299.99999999999994 0 1 1 100 800" />
    <glyph glyph-name="disc-44"
      unicode="&#x2C;"
      horiz-adv-x="800" d="M400 800M100 800A299.99999999999994 299.99999999999994 0 1 1 700 800A299.99999999999994 299.99999999999994 0 1 1 100 800" />
    <glyph glyph-name="disc-45"
      unicode="&#x2D;"
      horiz-adv-x="800" d="M400 800M100 800A299.99999999999994 299.99999999999994 0 1 1 700 800A299.99999999999994 299.99999999999994 0 1 1 100 800" />
    <glyph glyph-name="disc-46"
      unicode="&#x2E;"
      horiz-adv-x="800" d="M400 800M100 800A299.99999999999994 299.99999999999994 0 1 1 700 800A299.99999999999994 299.99999999999994 0 1 1 100 800" />
    <glyph glyph-name="disc-47"
      unicode="&#x2F;"
      horiz-adv-x="800" d="M400 800M100 800A299.99999999999994 299.99999999999994 0 1 1 700 800A299.99999999999994 299.99999999999994 0 1 1 100 800" />
    <glyph glyph-name="disc-48"
      unicode="&#x30;"
      horiz-adv-x="800" d="M400 800M100 800A299.99999999999994 299.99999999999994 0 1 1 700 800A299.99999999999994 299.99999999999994 0 1 1 100 800" />
    <glyph glyph-name="disc-49"
      unicode="&#x31;"
      horiz-adv-x="800" d="M400 800M100 800A299.99999999999994 299.99999999999994 0 1 1 700 800A299.99999999999994 299.99999999999994 0 1 1 100 800" />
    <glyph glyph-name="disc-50"
      unicode="&#x32;"
      horiz-adv-x="800" d="M400 800M100 800A299.99999999999994 299.99999999999994 0 1 1 700 800A299.99999999999994 299.99999999999994 0 1 1 100 800" />
    <glyph glyph-name="disc-51"
      unicode="&#x33;"
      horiz-adv-x="800" d="M400 800M100 800A299.99999999999994 299.99999999999994 0 1 1 700 800A299.99999999999994 299.99999999999994 0 1 1 100 800" />
    <glyph glyph-name="disc-52"
      unicode="&#x34;"
      horiz-adv-x="800" d="M400 800M100 800A299.99999999999994 299.99999999999994 0 1 1 700 800A299.99999999999994 299.99999999999994 0 1 1 100 800" />
    <glyph glyph-name="disc-53"
      unicode="&#x35;"
      horiz-adv-x="800" d="M400 800M100 800A299.99999999999994 299.99999999999994 0 1 1 700 800A299.99999999999994 299.99999999999994 0 1 1 100 800" />
    <glyph glyph-name="disc-54"
      unicode="&#x36;"
      horiz-adv-x="800" d="M400 800M100 800A299.99999999999994 299.99999999999994 0 1 1 700 800A299.99999999999994 299.99999999999994 0 1 1 100 800" />
    <glyph glyph-name="disc-55"
      unicode="&#x37;"
      horiz-adv-x="800" d="M400 800M100 800A299.99999999999994 299.99999999999994 0 1 1 700 800A299.99999999999994 299.99999999999994 0 1 1 100 800" />
    <glyph glyph-name="disc-56"
      unicode="&#x38;"
      horiz-adv-x="800" d="M400 800M100 800A299.99999999999994 299.99999999999994 0 1 1 700 800A299.99999999999994 299.99999999999994 0 1 1 100 800" />
    <glyph glyph-name="disc-57"
      unicode="&#x39;"
      horiz-adv-x="800" d="M400 800M100 800A299.99999999999994 299.99999999999994 0 1 1 700 800A299.99999999999994 299.99999999999994 0 1 1 100 800" />
    <glyph glyph-name="disc-58"
      unicode="&#x3A;"
      horiz-adv-x="800" d="M400 800M100 800A299.99999999999994 299.99999999999994 0 1 1 700 800A299.99999999999994 299.99999999999994 0 1 1 100 800" />
    <glyph glyph-name="disc-59"
      unicode="&#x3B;"
      horiz-adv-x="800" d="M400 800M100 800A299.99999999999994 299.99999999999994 0 1 1 700 800A299.99999999999994 299.99999999999994 0 1 1 100 800" />
    <glyph glyph-name="disc-60"
      unicode="&#x3C;"
      horiz-adv-x="800" d="M400 800M100 800A299.99999999999994 299.99999999999994 0 1 1 700 800A299.99999999999994 299.99999999999994 0 1 1 100 800" />
    <glyph glyph-name="disc-61"
      unicode="&#x3D;"
      horiz-adv-x="800" d="M400 800M100 800A299.99999999999994 299.99999999999994 0 1 1 700 800A299.99999999999994 299.99999999999994 0 1 1 100 800" />
    <glyph glyph-name="disc-62"
      unicode="&#x3E;"
      horiz-adv-x="800" d="M400 800M100 800A299.99999999999994 299.99999999999994 0 1 1 700 800A299.99999999999994 299.99999999999994 0 1 1 100 800" />
    <glyph glyph-name="disc-63"
      unicode="&#x3F;"
      horiz-adv-x="800" d="M400 800M100 800A299.99999999999994 299.99999999999994 0 1 1 700 800A299.99999999999994 299.99999999999994 0 1 1 100 800" />
    <glyph glyph-name="disc-64"
      unicode="&#x40;"
      horiz-adv-x="800" d="M400 800M100 800A299.99999999999994 299.99999999999994 0 1 1 700 800A299.99999999999994 299.99999999999994 0 1 1 100 800" />
    <glyph glyph-name="disc-65"
      unicode="&#x41;"
      horiz-adv-x="800" d="M400 800M100 800A299.99999999999994 299.99999999999994 0 1 1 700 800A299.99999999999994 299.99999999999994 0 1 1 100 800" />
    <glyph glyph-name="disc-66"
      unicode="&#x42;"
      horiz-adv-x="800" d="M400 800M100 800A299.99999999999994 299.99999999999994 0 1 1 700 800A299.99999999999994 299.99999999999994 0 1 1 100 800" />
    <glyph glyph-name="disc-67"
      unicode="&#x43;"
      horiz-adv-x="800" d="M400 800M100 800A299.99999999999994 299.99999999999994 0 1 1 700 800A299.99999999999994 299.99999999999994 0 1 1 100 800" />
    <glyph glyph-name="disc-68"
      unicode="&#x44;"
      horiz-adv-x="800" d="M400 800M100 800A299.99999999999994 299.99999999999994 0 1 1 700 800A299.99999999999994 299.99999999999994 0 1 1 100 800" />
    <glyph glyph-name="disc-69"
      unicode="&#x45;"
      horiz-adv-x="800" d="M400 800M100 800A299.99999999999994 299.99999999999994 0 1 1 700 800A299.99999999999994 299.99999999999994 0 1 1 100 800" />
    <glyph glyph-name="disc-70"
      unicode="&#x46;"
      horiz-adv-x="800" d="M400 800M100 800A299.99999999999994 299.99999999999994 0 1 1 700 800A299.99999999999994 299.99999999999994 0 1 1 100 800" />
    <glyph glyph-name="disc-71"
      unicode="&#x47;"
      horiz-adv-x="800" d="M400 800M100 800A299.99999999999994 299.99999999999994 0 1 1 700 800A299.99999999999994 299.99999999999994 0 1 1 100 800" />
    <glyph glyph-name="disc-72"
      unicode="&#x48;"
      horiz-adv-x="800" d="M400 800M100 800A299.99999999999994 299.99999999999994 0 1 1 700 800A299.99999999999994 299.99999999999994 0 1 1 100 800" />
    <glyph glyph-name="disc-73"
      unicode="&#x49;"
      horiz-adv-x="800" d="M400 800M100 800A299.99999999999994 299.99999999999994 0 1 1 700 800A299.99999999999994 299.99999999999994 0 1 1 100 800" />
    <glyph glyph-name="disc-74"
      unicode="&#x4A;"
      horiz-adv-x="800" d="M400 800M100 800A299.99999999999994 299.99999999999994 0 1 1 700 800A299.99999999999994 299.99999999999994 0 1 1 100 800" />
    <glyph glyph-name="disc-75"
      unicode="&#x4B;"
      horiz-adv-x="800" d="M400 800M100 800A299.99999999999994 299.99999999999994 0 1 1 700 800A299.99999999999994 299.99999999999994 0 1 1 100 800" />
    <glyph glyph-name="disc-76"
      unicode="&#x4C;"
      horiz-adv-x="800" d="M400 800M100 800A299.99999999999994 299.99999999999994 0 1 1 700 800A299.99999999999994 299.99999999999994 0 1 1 100 800" />
    <glyph glyph-name="disc-77"
      unicode="&#x4D;"
      horiz-adv-x="800" d="M400 800M100 800A299.99999999999994 299.99999999999994 0 1 1 700 800A299.99999999999994 299.99999999999994 0 1 1 100 800" />
    <glyph glyph-name="disc-78"
      unicode="&#x4E;"
      horiz-adv-x="800" d="M400 800M100 800A299.99999999999994 299.99999999999994 0 1 1 700 800A299.99999999999994 299.99999999999994 0 1 1 100 800" />
    <glyph glyph-name="disc-79"
      unicode="&#x4F;"
      horiz-adv-x="800" d="M400 800M100 800A299.99999999999994 299.99999999999994 0 1 1 700 800A299.99999999999994 299.99999999999994 0 1 1 100 800" />
    <glyph glyph-name="disc-80"
      unicode="&#x50;"
      horiz-adv-x="800" d="M400 800M100 800A299.99999999999994 299.99999999999994 0 1 1 700 800A299.99999999999994 299.99999999999994 0 1 1 100 800" />
    <glyph glyph-name="disc-81"
      unicode="&#x51;"
      horiz-adv-x="800" d="M400 800M100 800A299.99999999999994 299.99999999999994 0 1 1 700 800A299.99999999999994 299.99999999999994 0 1 1 100 800" />
    <glyph glyph-name="disc-82"
      unicode="&#x52;"
      horiz-adv-x="800" d="M400 800M100 800A299.99999999999994 299.99999999999994 0 1 1 700 800A299.99999999999994 299.99999999999994 0 1 1 100 800" />
    <glyph glyph-name="disc-83"
      unicode="&#x53;"
      horiz-adv-x="800" d="M400 800M100 800A299.99999999999994 299.99999999999994 0 1 1 700 800A299.99999999999994 299.99999999999994 0 1 1 100 800" />
    <glyph glyph-name="disc-84"
      unicode="&#x54;"
      horiz-adv-x="800" d="M400 800M100 800A299.99999999999994 299.99999999999994 0 1 1 700 800A299.99999999999994 299.99999999999994 0 1 1 100 800" />
    <glyph glyph-name="disc-85"
      unicode="&#x55;"
      horiz-adv-x="800" d="M400 800M100 800A299.99999999999994 299.99999999999994 0 1 1 700 800A299.99999999999994 299.99999999999994 0 1 1 100 800" />
    <glyph glyph-name="disc-86"
      unicode="&#x56;"
      horiz-adv-x="800" d="M400 800M100 800A299.99999999999994 299.99999999999994 0 1 1 700 800A299.99999999999994 299.99999999999994 0 1 1 100 800" />
    <glyph glyph-name="disc-87"
      unicode="&#x57;"
      horiz-adv-x="800" d="M400 800M100 800A299.99999999999994 299.99999999999994 0 1 1 700 800A299.99999999999994 299.99999999999994 0 1 1 100 800" />
    <glyph glyph-name="disc-88"
      unicode="&#x58;"
      horiz-adv-x="800" d="M400 800M100 800A299.99999999999994 299.99999999999994 0 1 1 700 800A299.99999999999994 299.99999999999994 0 1 1 100 800" />
    <glyph glyph-name="disc-89"
      unicode="&#x59;"
      horiz-adv-x="800" d="M400 800M100 800A299.99999999999994 299.99999999999994 0 1 1 700 800A299.99999999999994 299.99999999999994 0 1 1 100 800" />
    <glyph glyph-name="disc-90"
      unicode="&#x5A;"
      horiz-adv-x="800" d="M400 800M100 800A299.99999999999994 299.99999999999994 0 1 1 700 800A299.99999999999994 299.99999999999994 0 1 1 100 800" />
    <glyph glyph-name="disc-91"
      unicode="&#x5B;"
      horiz-adv-x="800" d="M400 800M100 800A299.99999999999994 299.99999999999994 0 1 1 700 800A299.99999999999994 299.99999999999994 0 1 1 100 800" />
    <glyph glyph-name="disc-92"
      unicode="&#x5C;"
      horiz-adv-x="800" d="M400 800M100 800A299.99999999999994 299.99999999999994 0 1 1 700 800A299.99999999999994 299.99999999999994 0 1 1 100 800" />
    <glyph glyph-name="disc-93"
      unicode="&#x5D;"
      horiz-adv-x="800" d="M400 800M100 800A299.99999999999994 299.99999999999994 0 1 1 700 800A299.99999999999994 299.99999999999994 0 1 1 100 800" />
    <glyph glyph-name="disc-94"
      unicode="&#x5E;"
      horiz-adv-x="800" d="M400 800M100 800A299.99999999999994 299.99999999999994 0 1 1 700 800A299.99999999999994 299.99999999999994 0 1 1 100 800" />
    <glyph glyph-name="disc-95"
      unicode="&#x5F;"
      horiz-adv-x="800" d="M400 800M100 800A299.99999999999994 299.99999999999994 0 1 1 700 800A299.99999999999994 299.99999999999994 0 1 1 100 800" />
    <glyph glyph-name="disc-96"
      unicode="&#x60;"
      horiz-adv-x="800" d="M400 800M100 800A299.99999999999994 299.99999999999994 0 1 1 700 800A299.99999999999994 299.99999999999994 0 1 1 100 800" />
    <glyph glyph-name="disc-97"
      unicode="&#x61;"
      horiz-adv-x="800" d="M400 800M100 800A299.99999999999994 299.99999999999994 0 1 1 700 800A299.99999999999994 299.99999999999994 0 1 1 100 800" />
    <glyph glyph-name="disc-98"
      unicode="&#x62;"
      horiz-adv-x="800" d="M400 800M100 800A299.99999999999994 299.99999999999994 0 1 1 700 800A299.99999999999994 299.99999999999994 0 1 1 100 800" />
    <glyph glyph-name="disc-99"
      unicode="&#x63;"
      horiz-adv-x="800" d="M400 800M100 800A299.99999999999994 299.99999999999994 0 1 1 700 800A299.99999999999994 299.99999999999994 0 1 1 100 800" />
    <glyph glyph-name="disc-100"
      unicode="&#x64;"
      horiz-adv-x="800" d="M400 800M100 800A299.99999999999994 299.99999999999994 0 1 1 700 800A299.99999999999994 299.99999999999994 0 1 1 100 800" />
    <glyph glyph-name="disc-101"
      unicode="&#x65;"
      horiz-adv-x="800" d="M400 800M100 800A299.99999999999994 299.99999999999994 0 1 1 700 800A299.99999999999994 299.99999999999994 0 1 1 100 800" />
    <glyph glyph-name="disc-102"
      unicode="&#x66;"
      horiz-adv-x="800" d="M400 800M100 800A299.99999999999994 299.99999999999994 0 1 1 700 800A299.99999999999994 299.99999999999994 0 1 1 100 800" />
    <glyph glyph-name="disc-103"
      unicode="&#x67;"
      horiz-adv-x="800" d="M400 800M100 800A299.99999999999994 299.99999999999994 0 1 1 700 800A299.99999999999994 299.99999999999994 0 1 1 100 800" />
    <glyph glyph-name="disc-104"
      unicode="&#x68;"
      horiz-adv-x="800" d="M400 800M100 800A299.99999999999994 299.99999999999994 0 1 1 700 800A299.99999999999994 299.99999999999994 0 1 1 100 800" />
    <glyph glyph-name="disc-105"
      unicode="&#x69;"
      horiz-adv-x="800" d="M400 800M100 800A299.99999999999994 299.99999999999994 0 1 1 700 800A299.99999999999994 299.99999999999994 0 1 1 100 800" />
    <glyph glyph-name="disc-106"
      unicode="&#x6A;"
      horiz-adv-x="800" d="M400 800M100 800A299.99999999999994 299.99999999999994 0 1 1 700 800A299.99999999999994 299.99999999999994 0 1 1 100 800" />
    <glyph glyph-name="disc-107"
      unicode="&#x6B;"
      horiz-adv-x="800" d="M400 800M100 800A299.99999999999994 299.99999999999994 0 1 1 700 800A299.99999999999994 299.99999999999994 0 1 1 100 800" />
    <glyph glyph-name="disc-108"
      unicode="&#x6C;"
      horiz-adv-x="800" d="M400 800M100 800A299.99999999999994 299.99999999999994 0 1 1 700 800A299.99999999999994 299.99999999999994 0 1 1 100 800" />
    <glyph glyph-name="disc-109"
      unicode="&#x6D;"
      horiz-adv-x="800" d="M400 800M100 800A299.99999999999994 299.99999999999994 0 1 1 700 800A299.99999999999994 299.99999999999994 0 1 1 100 800" />
    <glyph glyph-name="disc-110"
      unicode="&#x6E;"
      horiz-adv-x="800" d="M400 800M100 800A299.99999999999994 299.99999999999994 0 1 1 700 800A299.99999999999994 299.99999999999994 0 1 1 100 800" />
    <glyph glyph-name="disc-111"
      unicode="&#x6F;"
      horiz-adv-x="800" d="M400 800M100 800A299.99999999999994 299.99999999999994 0 1 1 700 800A299.99999999999994 299.99999999999994 0 1 1 100 800" />
    <glyph glyph-name="disc-112"
      unicode="&#x70;"
      horiz-adv-x="800" d="M400 800M100 800A299.99999999999994 299.99999999999994 0 1 1 700 800A299.99999999999994 299.99999999999994 0 1 1 100 800" />
    <glyph glyph-name="disc-113"
      unicode="&#x71;"
      horiz-adv-x="800" d="M400 800M100 800A299.99999999999994 299.99999999999994 0 1 1 700 800A299.99999999999994 299.99999999999994 0 1 1 100 800" />
    <glyph glyph-name="disc-114"
      unicode="&#x72;"
      horiz-adv-x="800" d="M400 800M100 800A299.99999999999994 299.99999999999994 0 1 1 700 800A299.99999999999994 299.99999999999994 0 1 1 100 800" />
    <glyph glyph-name="disc-115"
      unicode="&#x73;"
      horiz-adv-x="800" d="M400 800M100 800A299.99999999999994 299.99999999999994 0 1 1 700 800A299.99999999999994 299.99999999999994 0 1 1 100 800" />
    <glyph glyph-name="disc-116"
      unicode="&#x74;"
      horiz-adv-x="800" d="M400 800M100 800A299.99999999999994 299.99999999999994 0 1 1 700 800A299.99999999999994 299.99999999999994 0 1 1 100 800" />
    <glyph glyph-name="disc-117"
      unicode="&#x75;"
      horiz-adv-x="800" d="M400 800M100 800A299.99999999999994 299.99999999999994 0 1 1 700 800A299.99999999999994 299.99999999999994 0 1 1 100 800" />
    <glyph glyph-name="disc-118"
      unicode="&#x76;"
      horiz-adv-x="800" d="M400 800M100 800A299.99999999999994 299.99999999999994 0 1 1 700 800A299.99999999999994 299.99999999999994 0 1 1 100 800" />
    <glyph glyph-name="disc-119"
      unicode="&#x77;"
      horiz-adv-x="800" d="M400 800M100 800A299.99999999999994 299.99999999999994 0 1 1 700 800A299.99999999999994 299.99999999999994 0 1 1 100 800" />
    <glyph glyph-name="disc-120"
      unicode="&#x78;"
      horiz-adv-x="800" d="M400 800M100 800A299.99999999999994 299.99999999999994 0 1 1 700 800A299.99999999999994 299.99999999999994 0 1 1 100 800" />
    <glyph glyph-name="disc-121"
      unicode="&#x79;"
      horiz-adv-x="800" d="M400 800M100 800A299.99999999999994 299.99999999999994 0 1 1 700 800A299.99999999999994 299.99999999999994 0 1 1 100 800" />
    <glyph glyph-name="disc-122"
      unicode="&#x7A;"
      horiz-adv-x="800" d="M400 800M100 800A299.99999999999994 299.99999999999994 0 1 1 700 800A299.99999999999994 299.99999999999994 0 1 1 100 800" />
    <glyph glyph-name="disc-123"
      unicode="&#x7B;"
      horiz-adv-x="800" d="M400 800M100 800A299.99999999999994 299.99999999999994 0 1 1 700 800A299.99999999999994 299.99999999999994 0 1 1 100 800" />
    <glyph glyph-name="disc-124"
      unicode="&#x7C;"
      horiz-adv-x="800" d="M400 800M100 800A299.99999999999994 299.99999999999994 0 1 1 700 800A299.99999999999994 299.99999999999994 0 1 1 100 800" />
    <glyph glyph-name="disc-125"
      unicode="&#x7D;"
      horiz-adv-x="800" d="M400 800M100 800A299.99999999999994 299.99999999999994 0 1 1 700 800A299.99999999999994 299.99999999999994 0 1 1 100 800" />
    <glyph glyph-name="disc-126"
      unicode="&#x7E;"
      horiz-adv-x="800" d="M400 800M100 800A299.99999999999994 299.99999999999994 0 1 1 700 800A299.99999999999994 299.99999999999994 0 1 1 100 800" />
    <glyph glyph-name="disc-127"
      unicode="&#x7F;"
      horiz-adv-x="800" d="M400 800M100 800A299.99999999999994 299.99999999999994 0 1 1 700 800A299.99999999999994 299.99999999999994 0 1 1 100 800" />
    <glyph glyph-name="disc-128"
      unicode="&#x80;"
      horiz-adv-x="800" d="M400 800M100 800A299.99999999999994 299.99999999999994 0 1 1 700 800A299.99999999999994 299.99999999999994 0 1 1 100 800" />
    <glyph glyph-name="disc-129"
      unicode="&#x81;"
      horiz-adv-x="800" d="M400 800M100 800A299.99999999999994 299.99999999999994 0 1 1 700 800A299.99999999999994 299.99999999999994 0 1 1 100 800" />
    <glyph glyph-name="disc-130"
      unicode="&#x82;"
      horiz-adv-x="800" d="M400 800M100 800A299.99999999999994 299.99999999999994 0 1 1 700 800A299.99999999999994 299.99999999999994 0 1 1 100 800" />
    <glyph glyph-name="disc-131"
      unicode="&#x83;"
      horiz-adv-x="800" d="M400 800M100 800A299.99999999999994 299.99999999999994 0 1 1 700 800A299.99999999999994 299.99999999999994 0 1 1 100 800" />
    <glyph glyph-name="disc-132"
      unicode="&#x84;"
      horiz-adv-x="800" d="M400 800M100 800A299.99999999999994 299.99999999999994 0 1 1 700 800A299.99999999999994 299.99999999999994 0 1 1 100 800" />
    <glyph glyph-name="disc-133"
      unicode="&#x85;"
      horiz-adv-x="800" d="M400 800M100 800A299.99999999999994 299.99999999999994 0 1 1 700 800A299.99999999999994 299.99999999999994 0 1 1 100 800" />
    <glyph glyph-name="disc-134"
      unicode="&#x86;"
      horiz-adv-x="800" d="M400 800M100 800A299.99999999999994 299.99999999999994 0 1 1 700 800A299.99999999999994 299.99999999999994 0 1 1 100 800" />
    <glyph glyph-name="disc-135"
      unicode="&#x87;"
      horiz-adv-x="800" d="M400 800M100 800A299.99999999999994 299.99999999999994 0 1 1 700 800A299.99999999999994 299.99999999999994 0 1 1 100 800" />
    <glyph glyph-name="disc-136"
      unicode="&#x88;"
      horiz-adv-x="800" d="M400 800M100 800A299.99999999999994 299.99999999999994 0 1 1 700 800A299.99999999999994 299.99999999999994 0 1 1 100 800" />
    <glyph glyph-name="disc-137"
      unicode="&#x89;"
      horiz-adv-x="800" d="M400 800M100 800A299.99999999999994 299.99999999999994 0 1 1 700 800A299.99999999999994 299.99999999999994 0 1 1 100 800" />
    <glyph glyph-name="disc-138"
      unicode="&#x8A;"
      horiz-adv-x="800" d="M400 800M100 800A299.99999999999994 299.99999999999994 0 1 1 700 800A299.99999999999994 299.99999999999994 0 1 1 100 800" />
    <glyph glyph-name="disc-139"
      unicode="&#x8B;"
      horiz-adv-x="800" d="M400 800M100 800A299.99999999999994 299.99999999999994 0 1 1 700 800A299.99999999999994 299.99999999999994 0 1 1 100 800" />
    <glyph glyph-name="disc-140"
      unicode="&#x8C;"
      horiz-adv-x="800" d="M400 800M100 800A299.99999999999994 299.99999999999994 0 1 1 700 800A299.99999999999994 299.99999999999994 0 1 1 100 800" />
    <glyph glyph-name="disc-141"
      unicode="&#x8D;"
      horiz-adv-x="800" d="M400 800M100 800A299.99999999999994 299.99999999999994 0 1 1 700 800A299.99999999999994 299.99999999999994 0 1 1 100 800" />
    <glyph glyph-name="disc-142"
      unicode="&#x8E;"
      horiz-adv-x="800" d="M400 800M100 800A299.99999999999994 299.99999999999994 0 1 1 700 800A299.99999999999994 299.99999999999994 0 1 1 100 800" />
    <glyph glyph-name="disc-143"
      unicode="&#x8F;"
      horiz-adv-x="800" d="M400 800M100 800A299.99999999999994 299.99999999999994 0 1 1 700 800A299.99999999999994 299.99999999999994 0 1 1 100 800" />
    <glyph glyph-name="disc-144"
      unicode="&#x90;"
      horiz-adv-x="800" d="M400 800M100 800A299.99999999999994 299.99999999999994 0 1 1 700 800A299.99999999999994 299.99999999999994 0 1 1 100 800" />
    <glyph glyph-name="disc-145"
      unicode="&#x91;"
      horiz-adv-x="800" d="M400 800M100 800A299.99999999999994 299.99999999999994 0 1 1 700 800A299.99999999999994 299.99999999999994 0 1 1 100 800" />
    <glyph glyph-name="disc-146"
      unicode="&#x92;"
      horiz-adv-x="800" d="M400 800M100 800A299.99999999999994 299.99999999999994 0 1 1 700 800A299.99999999999994 299.99999999999994 0 1 1 100 800" />
    <glyph glyph-name="disc-147"
      unicode="&#x93;"
      horiz-adv-x="800" d="M400 800M100 800A299.99999999999994 299.99999999999994 0 1 1 700 800A299.99999999999994 299.99999999999994 0 1 1 100 800" />
    <glyph glyph-name="disc-148"
      unicode="&#x94;"
      horiz-adv-x="800" d="M400 800M100 800A299.99999999999994 299.99999999999994 0 1 1 700 800A299.99999999999994 299.99999999999994 0 1 1 100 800" />
    <glyph glyph-name="disc-149"
      unicode="&#x95;"
      horiz-adv-x="800" d="M400 800M100 800A299.99999999999994 299.99999999999994 0 1 1 700 800A299.99999999999994 299.99999999999994 0 1 1 100 800" />
    <glyph glyph-name="disc-150"
      unicode="&#x96;"
      horiz-adv-x="800" d="M400 800M100 800A299.99999999999994 299.99999999999994 0 1 1 700 800A299.99999999999994 299.99999999999994 0 1 1 100 800" />
    <glyph glyph-name="disc-151"
      unicode="&#x97;"
      horiz-adv-x="800" d="M400 800M100 800A299.99999999999994 299.99999999999994 0 1 1 700 800A299.99999999999994 299.99999999999994 0 1 1 100 800" />
    <glyph glyph-name="disc-152"
      unicode="&#x98;"
      horiz-adv-x="800" d="M400 800M100 800A299.99999999999994 299.99999999999994 0 1 1 700 800A299.99999999999994 299.99999999999994 0 1 1 100 800" />
    <glyph glyph-name="disc-153"
      unicode="&#x99;"
      horiz-adv-x="800" d="M400 800M100 800A299.99999999999994 299.99999999999994 0 1 1 700 800A299.99999999999994 299.99999999999994 0 1 1 100 800" />
    <glyph glyph-name="disc-154"
      unicode="&#x9A;"
      horiz-adv-x="800" d="M400 800M100 800A299.99999999999994 299.99999999999994 0 1 1 700 800A299.99999999999994 299.99999999999994 0 1 1 100 800" />
    <glyph glyph-name="disc-155"
      unicode="&#x9B;"
      horiz-adv-x="800" d="M400 800M100 800A299.99999999999994 299.99999999999994 0 1 1 700 800A299.99999999999994 299.99999999999994 0 1 1 100 800" />
    <glyph glyph-name="disc-156"
      unicode="&#x9C;"
      horiz-adv-x="800" d="M400 800M100 800A299.99999999999994 299.99999999999994 0 1 1 700 800A299.99999999999994 299.99999999999994 0 1 1 100 800" />
    <glyph glyph-name="disc-157"
      unicode="&#x9D;"
      horiz-adv-x="800" d="M400 800M100 800A299.99999999999994 299.99999999999994 0 1 1 700 800A299.99999999999994 299.99999999999994 0 1 1 100 800" />
    <glyph glyph-name="disc-158"
      unicode="&#x9E;"
      horiz-adv-x="800" d="M400 800M100 800A299.99999999999994 299.99999999999994 0 1 1 700 800A299.99999999999994 299.99999999999994 0 1 1 100 800" />
    <glyph glyph-name="disc-159"
      unicode="&#x9F;"
      horiz-adv-x="800" d="M400 800M100 800A299.99999999999994 299.99999999999994 0 1 1 700 800A299.99999999999994 299.99999999999994 0 1 1 100 800" />
    <glyph glyph-name="disc-160"
      unicode="&#xA0;"
      horiz-adv-x="800" d="M400 800M100 800A299.99999999999994 299.99999999999994 0 1 1 700 800A299.99999999999994 299.99999999999994 0 1 1 100 800" />
    <glyph glyph-name="disc-161"
      unicode="&#xA1;"
      horiz-adv-x="800" d="M400 800M100 800A299.99999999999994 299.99999999999994 0 1 1 700 800A299.99999999999994 299.99999999999994 0 1 1 100 800" />
    <glyph glyph-name="disc-162"
      unicode="&#xA2;"
      horiz-adv-x="800" d="M400 800M100 800A299.99999999999994 299.99999999999994 0 1 1 700 800A299.99999999999994 299.99999999999994 0 1 1 100 800" />
    <glyph glyph-name="disc-163"
      unicode="&#xA3;"
      horiz-adv-x="800" d="M400 800M100 800A299.99999999999994 299.99999999999994 0 1 1 700 800A299.99999999999994 299.99999999999994 0 1 1 100 800" />
    <glyph glyph-name="disc-164"
      unicode="&#xA4;"
      horiz-adv-x="800" d="M400 800M100 800A299.99999999999994 299.99999999999994 0 1 1 700 800A299.99999999999994 299.99999999999994 0 1 1 100 800" />
    <glyph glyph-name="disc-165"
      unicode="&#xA5;"
      horiz-adv-x="800" d="M400 800M100 800A299.99999999999994 299.99999999999994 0 1 1 700 800A299.99999999999994 299.99999999999994 0 1 1 100 800" />
    <glyph glyph-name="disc-166"
      unicode="&#xA6;"
      horiz-adv-x="800" d="M400 800M100 800A299.99999999999994 299.99999999999994 0 1 1 700 800A299.99999999999994 299.99999999999994 0 1 1 100 800" />
    <glyph glyph-name="disc-167"
      unicode="&#xA7;"
      horiz-adv-x="800" d="M400 800M100 800A299.99999999999994 299.99999999999994 0 1 1 700 800A299.99999999999994 299.99999999999994 0 1 1 100 800" />
    <glyph glyph-name="disc-168"
      unicode="&#xA8;"
      horiz-adv-x="800" d="M400 800M100 800A299.99999999999994 299.99999999999994 0 1 1 700 800A299.99999999999994 299.99999999999994 0 1 1 100 800" />
    <glyph glyph-name="disc-169"
      unicode="&#xA9;"
      horiz-adv-x="800" d="M400 800M100 800A299.99999999999994 299.99999999999994 0 1 1 700 800A299.99999999999994 299.99999999999994 0 1 1 100 800" />
    <glyph glyph-name="disc-170"
      unicode="&#xAA;"
      horiz-adv-x="800" d="M400 800M100 800A299.99999999999994 299.99999999999994 0 1 1 700 800A299.99999999999994 299.99999999999994 0 1 1 100 800" />
    <glyph glyph-name="disc-171"
      unicode="&#xAB;"
      horiz-adv-x="800" d="M400 800M100 800A299.99999999999994 299.99999999999994 0 1 1 700 800A299.99999999999994 299.99999999999994 0 1 1 100 800" />
    <glyph glyph-name="disc-172"
      unicode="&#xAC;"
      horiz-adv-x="800" d="M400 800M100 800A299.99999999999994 299.99999999999994 0 1 1 700 800A299.99999999999994 299.99999999999994 0 1 1 100 800" />
    <glyph glyph-name="disc-173"
      unicode="&#xAD;"
      horiz-adv-x="800" d="M400 800M100 800A299.99999999999994 299.99999999999994 0 1 1 700 800A299.99999999999994 299.99999999999994 0 1 1 100 800" />
    <glyph glyph-name="disc-174"
      unicode="&#xAE;"
      horiz-adv-x="800" d="M400 800M100 800A299.99999999999994 299.99999999999994 0 1 1 700 800A299.99999999999994 299.99999999999994 0 1 1 100 800" />
    <glyph glyph-name="disc-175"
      unicode="&#xAF;"
      horiz-adv-x="800" d="M400 800M100 800A299.99999999999994 299.99999999999994 0 1 1 700 800A299.99999999999994 299.99999999999994 0 1 1 100 800" />
    <glyph glyph-name="disc-176"
      unicode="&#xB0;"
      horiz-adv-x="800" d="M400 800M100 800A299.99999999999994 299.99999999999994 0 1 1 700 800A299.99999999999994 299.99999999999994 0 1 1 100 800" />
    <glyph glyph-name="disc-177"
      unicode="&#xB1;"
      horiz-adv-x="800" d="M400 800M100 800A299.99999999999994 299.99999999999994 0 1 1 700 800A299.99999999999994 299.99999999999994 0 1 1 100 800" />
    <glyph glyph-name="disc-178"
      unicode="&#xB2;"
      horiz-adv-x="800" d="M400 800M100 800A299.99999999999994 299.99999999999994 0 1 1 700 800A299.99999999999994 299.99999999999994 0 1 1 100 800" />
    <glyph glyph-name="disc-179"
      unicode="&#xB3;"
      horiz-adv-x="800" d="M400 800M100 800A299.99999999999994 299.99999999999994 0 1 1 700 800A299.99999999999994 299.99999999999994 0 1 1 100 800" />
    <glyph glyph-name="disc-180"
      unicode="&#xB4;"
      horiz-adv-x="800" d="M400 800M100 800A299.99999999999994 299.99999999999994 0 1 1 700 800A299.99999999999994 299.99999999999994 0 1 1 100 800" />
    <glyph glyph-name="disc-181"
      unicode="&#xB5;"
      horiz-adv-x="800" d="M400 800M100 800A299.99999999999994 299.99999999999994 0 1 1 700 800A299.99999999999994 299.99999999999994 0 1 1 100 800" />
    <glyph glyph-name="disc-182"
      unicode="&#xB6;"
      horiz-adv-x="800" d="M400 800M100 800A299.99999999999994 299.99999999999994 0 1 1 700 800A299.99999999999994 299.99999999999994 0 1 1 100 800" />
    <glyph glyph-name="disc-183"
      unicode="&#xB7;"
      horiz-adv-x="800" d="M400 800M100 800A299.99999999999994 299.99999999999994 0 1 1 700 800A299.99999999999994 299.99999999999994 0 1 1 100 800" />
    <glyph glyph-name="disc-184"
      unicode="&#xB8;"
      horiz-adv-x="800" d="M400 800M100 800A299.99999999999994 299.99999999999994 0 1 1 700 800A299.99999999999994 299.99999999999994 0 1 1 100 800" />
    <glyph glyph-name="disc-185"
      unicode="&#xB9;"
      horiz-adv-x="800" d="M400 800M100 800A299.99999999999994 299.99999999999994 0 1 1 700 800A299.99999999999994 299.99999999999994 0 1 1 100 800" />
    <glyph glyph-name="disc-186"
      unicode="&#xBA;"
      horiz-adv-x="800" d="M400 800M100 800A299.99999999999994 299.99999999999994 0 1 1 700 800A299.99999999999994 299.99999999999994 0 1 1 100 800" />
    <glyph glyph-name="disc-187"
      unicode="&#xBB;"
      horiz-adv-x="800" d="M400 800M100 800A299.99999999999994 299.99999999999994 0 1 1 700 800A299.99999999999994 299.99999999999994 0 1 1 100 800" />
    <glyph glyph-name="disc-188"
      unicode="&#xBC;"
      horiz-adv-x="800" d="M400 800M100 800A299.99999999999994 299.99999999999994 0 1 1 700 800A299.99999999999994 299.99999999999994 0 1 1 100 800" />
    <glyph glyph-name="disc-189"
      unicode="&#xBD;"
      horiz-adv-x="800" d="M400 800M100 800A299.99999999999994 299.99999999999994 0 1 1 700 800A299.99999999999994 299.99999999999994 0 1 1 100 800" />
    <glyph glyph-name="disc-190"
      unicode="&#xBE;"
      horiz-adv-x="800" d="M400 800M100 800A299.99999999999994 299.99999999999994 0 1 1 700 800A299.99999999999994 299.99999999999994 0 1 1 100 800" />
    <glyph glyph-name="disc-191"
      unicode="&#xBF;"
      horiz-adv-x="800" d="M400 800M100 800A299.99999999999994 299.99999999999994 0 1 1 700 800A299.99999999999994 299.99999999999994 0 1 1 100 800" />
    <glyph glyph-name="disc-192"
      unicode="&#xC0;"
      horiz-adv-x="800" d="M400 800M100 800A299.99999999999994 299.99999999999994 0 1 1 700 800A299.99999999999994 299.99999999999994 0 1 1 100 800" />
    <glyph glyph-name="disc-193"
      unicode="&#xC1;"
      horiz-adv-x="800" d="M400 800M100 800A299.99999999999994 299.99999999999994 0 1 1 700 800A299.99999999999994 299.99999999999994 0 1 1 100 800" />
    <glyph glyph-name="disc-194"
      unicode="&#xC2;"
      horiz-adv-x="800" d="M400 800M100 800A299.99999999999994 299.99999999999994 0 1 1 700 800A299.99999999999994 299.99999999999994 0 1 1 100 800" />
    <glyph glyph-name="disc-195"
      unicode="&#xC3;"
      horiz-adv-x="800" d="M400 800M100 800A299.99999999999994 299.99999999999994 0 1 1 700 800A299.99999999999994 299.99999999999994 0 1 1 100 800" />
    <glyph glyph-name="disc-196"
      unicode="&#xC4;"
      horiz-adv-x="800" d="M400 800M100 800A299.99999999999994 299.99999999999994 0 1 1 700 800A299.99999999999994 299.99999999999994 0 1 1 100 800" />
    <glyph glyph-name="disc-197"
      unicode="&#xC5;"
      horiz-adv-x="800" d="M400 800M100 800A299.99999999999994 299.99999999999994 0 1 1 700 800A299.99999999999994 299.99999999999994 0 1 1 100 800" />
    <glyph glyph-name="disc-198"
      unicode="&#xC6;"
      horiz-adv-x="800" d="M400 800M100 800A299.99999999999994 299.99999999999994 0 1 1 700 800A299.99999999999994 299.99999999999994 0 1 1 100 800" />
    <glyph glyph-name="disc-199"
      unicode="&#xC7;"
      horiz-adv-x="800" d="M400 800M100 800A299.99999999999994 299.99999999999994 0 1 1 700 800A299.99999999999994 299.99999999999994 0 1 1 100 800" />
    <glyph glyph-name="disc-200"
      unicode="&#xC8;"
      horiz-adv-x="800" d="M400 800M100 800A299.99999999999994 299.99999999999994 0 1 1 700 800A299.99999999999994 299.99999999999994 0 1 1 100 800" />
    <glyph glyph-name="disc-201"
      unicode="&#xC9;"
      horiz-adv-x="800" d="M400 800M100 800A299.99999999999994 299.99999999999994 0 1 1 700 800A299.99999999999994 299.99999999999994 0 1 1 100 800" />
    <glyph glyph-name="disc-202"
      unicode="&#xCA;"
      horiz-adv-x="800" d="M400 800M100 800A299.99999999999994 299.99999999999994 0 1 1 700 800A299.99999999999994 299.99999999999994 0 1 1 100 800" />
    <glyph glyph-name="disc-203"
      unicode="&#xCB;"
      horiz-adv-x="800" d="M400 800M100 800A299.99999999999994 299.99999999999994 0 1 1 700 800A299.99999999999994 299.99999999999994 0 1 1 100 800" />
    <glyph glyph-name="disc-204"
      unicode="&#xCC;"
      horiz-adv-x="800" d="M400 800M100 800A299.99999999999994 299.99999999999994 0 1 1 700 800A299.99999999999994 299.99999999999994 0 1 1 100 800" />
    <glyph glyph-name="disc-205"
      unicode="&#xCD;"
      horiz-adv-x="800" d="M400 800M100 800A299.99999999999994 299.99999999999994 0 1 1 700 800A299.99999999999994 299.99999999999994 0 1 1 100 800" />
    <glyph glyph-name="disc-206"
      unicode="&#xCE;"
      horiz-adv-x="800" d="M400 800M100 800A299.99999999999994 299.99999999999994 0 1 1 700 800A299.99999999999994 299.99999999999994 0 1 1 100 800" />
    <glyph glyph-name="disc-207"
      unicode="&#xCF;"
      horiz-adv-x="800" d="M400 800M100 800A299.99999999999994 299.99999999999994 0 1 1 700 800A299.99999999999994 299.99999999999994 0 1 1 100 800" />
    <glyph glyph-name="disc-208"
      unicode="&#xD0;"
      horiz-adv-x="800" d="M400 800M100 800A299.99999999999994 299.99999999999994 0 1 1 700 800A299.99999999999994 299.99999999999994 0 1 1 100 800" />
    <glyph glyph-name="disc-209"
      unicode="&#xD1;"
      horiz-adv-x="800" d="M400 800M100 800A299.99999999999994 299.99999999999994 0 1 1 700 800A299.99999999999994 299.99999999999994 0 1 1 100 800" />
    <glyph glyph-name="disc-210"
      unicode="&#xD2;"
      horiz-adv-x="800" d="M400 800M100 800A299.99999999999994 299.99999999999994 0 1 1 700 800A299.99999999999994 299.99999999999994 0 1 1 100 800" />
    <glyph glyph-name="disc-211"
      unicode="&#xD3;"
      horiz-adv-x="800" d="M400 800M100 800A299.99999999999994 299.99999999999994 0 1 1 700 800A299.99999999999994 299.99999999999994 0 1 1 100 800" />
    <glyph glyph-name="disc-212"
      unicode="&#xD4;"
      horiz-adv-x="800" d="M400 800M100 800A299.99999999999994 299.99999999999994 0 1 1 700 800A299.99999999999994 299.99999999999994 0 1 1 100 800" />
    <glyph glyph-name="disc-213"
      unicode="&#xD5;"
      horiz-adv-x="800" d="M400 800M100 800A299.99999999999994 299.99999999999994 0 1 1 700 800A299.99999999999994 299.99999999999994 0 1 1 100 800" />
    <glyph glyph-name="disc-214"
      unicode="&#xD6;"
      horiz-adv-x="800" d="M400 800M100 800A299.99999999999994 299.99999999999994 0 1 1 700 800A299.99999999999994 299.99999999999994 0 1 1 100 800" />
    <glyph glyph-name="disc-215"
      unicode="&#xD7;"
      horiz-adv-x="800" d="M400 800M100 800A299.99999999999994 299.99999999999994 0 1 1 700 800A299.99999999999994 299.99999999999994 0 1 1 100 800" />
    <glyph glyph-name="disc-216"
      unicode="&#xD8;"
      horiz-adv-x="800" d="M400 800M100 800A299.99999999999994 299.99999999999994 0 1 1 700 800A299.99999999999994 299.99999999999994 0 1 1 100 800" />
    <glyph glyph-name="disc-217"
      unicode="&#xD9;"
      horiz-adv-x="800" d="M400 800M100 800A299.99999999999994 299.99999999999994 0 1 1 700 800A299.99999999999994 299.99999999999994 0 1 1 100 800" />
    <glyph glyph-name="disc-218"
      unicode="&#xDA;"
      horiz-adv-x="800" d="M400 800M100 800A299.99999999999994 299.99999999999994 0 1 1 700 800A299.99999999999994 299.99999999999994 0 1 1 100 800" />
    <glyph glyph-name="disc-219"
      unicode="&#xDB;"
      horiz-adv-x="800" d="M400 800M100 800A299.99999999999994 299.99999999999994 0 1 1 700 800A299.99999999999994 299.99999999999994 0 1 1 100 800" />
    <glyph glyph-name="disc-220"
      unicode="&#xDC;"
      horiz-adv-x="800" d="M400 800M100 800A299.99999999999994 299.99999999999994 0 1 1 700 800A299.99999999999994 299.99999999999994 0 1 1 100 800" />
    <glyph glyph-name="disc-221"
      unicode="&#xDD;"
      horiz-adv-x="800" d="M400 800M100 800A299.99999999999994 299.99999999999994 0 1 1 700 800A299.99999999999994 299.99999999999994 0 1 1 100 800" />
    <glyph glyph-name="disc-222"
      unicode="&#xDE;"
      horiz-adv-x="800" d="M400 800M100 800A299.99999999999994 299.99999999999994 0 1 1 700 800A299.99999999999994 299.99999999999994 0 1 1 100 800" />
    <glyph glyph-name="disc-223"
      unicode="&#xDF;"
      horiz-adv-x="800" d="M400 800M100 800A299.99999999999994 299.99999999999994 0 1 1 700 800A299.99999999999994 299.99999999999994 0 1 1 100 800" />
    <glyph glyph-name="disc-224"
      unicode="&#xE0;"
      horiz-adv-x="800" d="M400 800M100 800A299.99999999999994 299.99999999999994 0 1 1 700 800A299.99999999999994 299.99999999999994 0 1 1 100 800" />
    <glyph glyph-name="disc-225"
      unicode="&#xE1;"
      horiz-adv-x="800" d="M400 800M100 800A299.99999999999994 299.99999999999994 0 1 1 700 800A299.99999999999994 299.99999999999994 0 1 1 100 800" />
    <glyph glyph-name="disc-226"
      unicode="&#xE2;"
      horiz-adv-x="800" d="M400 800M100 800A299.99999999999994 299.99999999999994 0 1 1 700 800A299.99999999999994 299.99999999999994 0 1 1 100 800" />
    <glyph glyph-name="disc-227"
      unicode="&#xE3;"
      horiz-adv-x="800" d="M400 800M100 800A299.99999999999994 299.99999999999994 0 1 1 700 800A299.99999999999994 299.99999999999994 0 1 1 100 800" />
    <glyph glyph-name="disc-228"
      unicode="&#xE4;"
      horiz-adv-x="800" d="M400 800M100 800A299.99999999999994 299.99999999999994 0 1 1 700 800A299.99999999999994 299.99999999999994 0 1 1 100 800" />
    <glyph glyph-name="disc-229"
      unicode="&#xE5;"
      horiz-adv-x="800" d="M400 800M100 800A299.99999999999994 299.99999999999994 0 1 1 700 800A299.99999999999994 299.99999999999994 0 1 1 100 800" />
    <glyph glyph-name="disc-230"
      unicode="&#xE6;"
      horiz-adv-x="800" d="M400 800M100 800A299.99999999999994 299.99999999999994 0 1 1 700 800A299.99999999999994 299.99999999999994 0 1 1 100 800" />
    <glyph glyph-name="disc-231"
      unicode="&#xE7;"
      horiz-adv-x="800" d="M400 800M100 800A299.99999999999994 299.99999999999994 0 1 1 700 800A299.99999999999994 299.99999999999994 0 1 1 100 800" />
    <glyph glyph-name="disc-232"
      unicode="&#xE8;"
      horiz-adv-x="800" d="M400 800M100 800A299.99999999999994 299.99999999999994 0 1 1 700 800A299.99999999999994 299.99999999999994 0 1 1 100 800" />
    <glyph glyph-name="disc-233"
      unicode="&#xE9;"
      horiz-adv-x="800" d="M400 800M100 800A299.99999999999994 299.99999999999994 0 1 1 700 800A299.99999999999994 299.99999999999994 0 1 1 100 800" />
    <glyph glyph-name="disc-234"
      unicode="&#xEA;"
      horiz-adv-x="800" d="M400 800M100 800A299.99999999999994 299.99999999999994 0 1 1 700 800A299.99999999999994 299.99999999999994 0 1 1 100 800" />
    <glyph glyph-name="disc-235"
      unicode="&#xEB;"
      horiz-adv-x="800" d="M400 800M100 800A299.99999999999994 299.99999999999994 0 1 1 700 800A299.99999999999994 299.99999999999994 0 1 1 100 800" />
    <glyph glyph-name="disc-236"
      unicode="&#xEC;"
      horiz-adv-x="800" d="M400 800M100 800A299.99999999999994 299.99999999999994 0 1 1 700 800A299.99999999999994 299.99999999999994 0 1 1 100 800" />
    <glyph glyph-name="disc-237"
      unicode="&#xED;"
      horiz-adv-x="800" d="M400 800M100 800A299.99999999999994 299.99999999999994 0 1 1 700 800A299.99999999999994 299.99999999999994 0 1 1 100 800" />
    <glyph glyph-name="disc-238"
      unicode="&#xEE;"
      horiz-adv-x="800" d="M400 800M100 800A299.99999999999994 299.99999999999994 0 1 1 700 800A299.99999999999994 299.99999999999994 0 1 1 100 800" />
    <glyph glyph-name="disc-239"
      unicode="&#xEF;"
      horiz-adv-x="800" d="M400 800M100 800A299.99999999999994 299.99999999999994 0 1 1 700 800A299.99999999999994 299.99999999999994 0 1 1 100 800" />
    <glyph glyph-name="disc-240"
      unicode="&#xF0;"
      horiz-adv-x="800" d="M400 800M100 800A299.99999999999994 299.99999999999994 0 1 1 700 800A299.99999999999994 299.99999999999994 0 1 1 100 800" />
    <glyph glyph-name="disc-241"
      unicode="&#xF1;"
      horiz-adv-x="800" d="M400 800M100 800A299.99999999999994 299.99999999999994 0 1 1 700 800A299.99999999999994 299.99999999999994 0 1 1 100 800" />
    <glyph glyph-name="disc-242"
      unicode="&#xF2;"
      horiz-adv-x="800" d="M400 800M100 800A299.99999999999994 299.99999999999994 0 1 1 700 800A299.99999999999994 299.99999999999994 0 1 1 100 800" />
    <glyph glyph-name="disc-243"
      unicode="&#xF3;"
      horiz-adv-x="800" d="M400 800M100 800A299.99999999999994 299.99999999999994 0 1 1 700 800A299.99999999999994 299.99999999999994 0 1 1 100 800" />
    <glyph glyph-name="disc-244"
      unicode="&#xF4;"
      horiz-adv-x="800" d="M400 800M100 800A299.99999999999994 299.99999999999994 0 1 1 700 800A299.99999999999994 299.99999999999994 0 1 1 100 800" />
    <glyph glyph-name="disc-245"
      unicode="&#xF5;"
      horiz-adv-x="800" d="M400 800M100 800A299.99999999999994 299.99999999999994 0 1 1 700 800A299.99999999999994 299.99999999999994 0 1 1 100 800" />
    <glyph glyph-name="disc-246"
      unicode="&#xF6;"
      horiz-adv-x="800" d="M400 800M100 800A299.99999999999994 299.99999999999994 0 1 1 700 800A299.99999999999994 299.99999999999994 0 1 1 100 800" />
    <glyph glyph-name="disc-247"
      unicode="&#xF7;"
      horiz-adv-x="800" d="M400 800M100 800A299.99999999999994 299.99999999999994 0 1 1 700 800A299.99999999999994 299.99999999999994 0 1 1 100 800" />
    <glyph glyph-name="disc-248"
      unicode="&#xF8;"
      horiz-adv-x="800" d="M400 800M100 800A299.99999999999994 299.99999999999994 0 1 1 700 800A299.99999999999994 299.99999999999994 0 1 1 100 800" />
    <glyph glyph-name="disc-249"
      unicode="&#xF9;"
      horiz-adv-x="800" d="M400 800M100 800A299.99999999999994 299.99999999999994 0 1 1 700 800A299.99999999999994 299.99999999999994 0 1 1 100 800" />
    <glyph glyph-name="disc-250"
      unicode="&#xFA;"
      horiz-adv-x="800" d="M400 800M100 800A299.99999999999994 299.99999999999994 0 1 1 700 800A299.99999999999994 299.99999999999994 0 1 1 100 800" />
    <glyph glyph-name="disc-251"
      unicode="&#xFB;"
      horiz-adv-x="800" d="M400 800M100 800A299.99999999999994 299.99999999999994 0 1 1 700 800A299.99999999999994 299.99999999999994 0 1 1 100 800" />
    <glyph glyph-name="disc-252"
      unicode="&#xFC;"
      horiz-adv-x="800" d="M400 800M100 800A299.99999999999994 299.99999999999994 0 1 1 700 800A299.99999999999994 299.99999999999994 0 1 1 100 800" />
    <glyph glyph-name="disc-253"
      unicode="&#xFD;"
      horiz-adv-x="800" d="M400 800M100 800A299.99999999999994 299.99999999999994 0 1 1 700 800A299.99999999999994 299.99999999999994 0 1 1 100 800" />
    <glyph glyph-name="disc-254"
      unicode="&#xFE;"
      horiz-adv-x="800" d="M400 800M100 800A299.99999999999994 299.99999999999994 0 1 1 700 800A299.99999999999994 299.99999999999994 0 1 1 100 800" />
    <glyph glyph-name="disc-255"
      unicode="&#xFF;"
      horiz-adv-x="800" d="M400 800M100 800A299.99999999999994 299.99999999999994 0 1 1 700 800A299.99999999999994 299.99999999999994 0 1 1 100 800" />
    <glyph glyph-name="disc-256"
      unicode="&#x100;"
      horiz-adv-x="800" d="M400 800M100 800A299.99999999999994 299.99999999999994 0 1 1 700 800A299.99999999999994 299.99999999999994 0 1 1 100 800" />
    <glyph glyph-name="disc-257"
      unicode="&#x101;"
      horiz-adv-x="800" d="M400 800M100 800A299.99999999999994 299.99999999999994 0 1 1 700 800A299.99999999999994 299.99999999999994 0 1 1 100 800" />
    <glyph glyph-name="disc-258"
      unicode="&#x102;"
      horiz-adv-x="800" d="M400 800M100 800A299.99999999999994 299.99999999999994 0 1 1 700 800A299.99999999999994 299.99999999999994 0 1 1 100 800" />
    <glyph glyph-name="disc-259"
      unicode="&#x103;"
      horiz-adv-x="800" d="M400 800M100 800A299.99999999999994 299.99999999999994 0 1 1 700 800A299.99999999999994 299.99999999999994 0 1 1 100 800" />
    <glyph glyph-name="disc-260"
      unicode="&#x104;"
      horiz-adv-x="800" d="M400 800M100 800A299.99999999999994 299.99999999999994 0 1 1 700 800A299.99999999999994 299.99999999999994 0 1 1 100 800" />
    <glyph glyph-name="disc-261"
      unicode="&#x105;"
      horiz-adv-x="800" d="M400 800M100 800A299.99999999999994 299.99999999999994 0 1 1 700 800A299.99999999999994 299.99999999999994 0 1 1 100 800" />
    <glyph glyph-name="disc-262"
      unicode="&#x106;"
      horiz-adv-x="800" d="M400 800M100 800A299.99999999999994 299.99999999999994 0 1 1 700 800A299.99999999999994 299.99999999999994 0 1 1 100 800" />
    <glyph glyph-name="disc-263"
      unicode="&#x107;"
      horiz-adv-x="800" d="M400 800M100 800A299.99999999999994 299.99999999999994 0 1 1 700 800A299.99999999999994 299.99999999999994 0 1 1 100 800" />
    <glyph glyph-name="disc-264"
      unicode="&#x108;"
      horiz-adv-x="800" d="M400 800M100 800A299.99999999999994 299.99999999999994 0 1 1 700 800A299.99999999999994 299.99999999999994 0 1 1 100 800" />
    <glyph glyph-name="disc-265"
      unicode="&#x109;"
      horiz-adv-x="800" d="M400 800M100 800A299.99999999999994 299.99999999999994 0 1 1 700 800A299.99999999999994 299.99999999999994 0 1 1 100 800" />
    <glyph glyph-name="disc-266"
      unicode="&#x10A;"
      horiz-adv-x="800" d="M400 800M100 800A299.99999999999994 299.99999999999994 0 1 1 700 800A299.99999999999994 299.99999999999994 0 1 1 100 800" />
    <glyph glyph-name="disc-267"
      unicode="&#x10B;"
      horiz-adv-x="800" d="M400 800M100 800A299.99999999999994 299.99999999999994 0 1 1 700 800A299.99999999999994 299.99999999999994 0 1 1 100 800" />
    <glyph glyph-name="disc-268"
      unicode="&#x10C;"
      horiz-adv-x="800" d="M400 800M100 800A299.99999999999994 299.99999999999994 0 1 1 700 800A299.99999999999994 299.99999999999994 0 1 1 100 800" />
    <glyph glyph-name="disc-269"
      unicode="&#x10D;"
      horiz-adv-x="800" d="M400 800M100 800A299.99999999999994 299.99999999999994 0 1 1 700 800A299.99999999999994 299.99999999999994 0 1 1 100 800" />
    <glyph glyph-name="disc-270"
      unicode="&#x10E;"
      horiz-adv-x="800" d="M400 800M100 800A299.99999999999994 299.99999999999994 0 1 1 700 800A299.99999999999994 299.99999999999994 0 1 1 100 800" />
    <glyph glyph-name="disc-271"
      unicode="&#x10F;"
      horiz-adv-x="800" d="M400 800M100 800A299.99999999999994 299.99999999999994 0 1 1 700 800A299.99999999999994 299.99999999999994 0 1 1 100 800" />
    <glyph glyph-name="disc-272"
      unicode="&#x110;"
      horiz-adv-x="800" d="M400 800M100 800A299.99999999999994 299.99999999999994 0 1 1 700 800A299.99999999999994 299.99999999999994 0 1 1 100 800" />
    <glyph glyph-name="disc-273"
      unicode="&#x111;"
      horiz-adv-x="800" d="M400 800M100 800A299.99999999999994 299.99999999999994 0 1 1 700 800A299.99999999999994 299.99999999999994 0 1 1 100 800" />
    <glyph glyph-name="disc-274"
      unicode="&#x112;"
      horiz-adv-x="800" d="M400 800M100 800A299.99999999999994 299.99999999999994 0 1 1 700 800A299.99999999999994 299.99999999999994 0 1 1 100 800" />
    <glyph glyph-name="disc-275"
      unicode="&#x113;"
      horiz-adv-x="800" d="M400 800M100 800A299.99999999999994 299.99999999999994 0 1 1 700 800A299.99999999999994 299.99999999999994 0 1 1 100 800" />
    <glyph glyph-name="disc-276"
      unicode="&#x114;"
      horiz-adv-x="800" d="M400 800M100 800A299.99999999999994 299.99999999999994 0 1 1 700 800A299.99999999999994 299.99999999999994 0 1 1 100 800" />
    <glyph glyph-name="disc-277"
      unicode="&#x115;"
      horiz-adv-x="800" d="M400 800M100 800A299.99999999999994 299.99999999999994 0 1 1 700 800A299.99999999999994 299.99999999999994 0 1 1 100 800" />
    <glyph glyph-name="disc-278"
      unicode="&#x116;"
      horiz-adv-x="800" d="M400 800M100 800A299.99999999999994 299.99999999999994 0 1 1 700 800A299.99999999999994 299.99999999999994 0 1 1 100 800" />
    <glyph glyph-name="disc-279"
      unicode="&#x117;"
      horiz-adv-x="800" d="M400 800M100 800A299.99999999999994 299.99999999999994 0 1 1 700 800A299.99999999999994 299.99999999999994 0 1 1 100 800" />
    <glyph glyph-name="disc-280"
      unicode="&#x118;"
      horiz-adv-x="800" d="M400 800M100 800A299.99999999999994 299.99999999999994 0 1 1 700 800A299.99999999999994 299.99999999999994 0 1 1 100 800" />
    <glyph glyph-name="disc-281"
      unicode="&#x119;"
      horiz-adv-x="800" d="M400 800M100 800A299.99999999999994 299.99999999999994 0 1 1 700 800A299.99999999999994 299.99999999999994 0 1 1 100 800" />
    <glyph glyph-name="disc-282"
      unicode="&#x11A;"
      horiz-adv-x="800" d="M400 800M100 800A299.99999999999994 299.99999999999994 0 1 1 700 800A299.99999999999994 299.99999999999994 0 1 1 100 800" />
    <glyph glyph-name="disc-283"
      unicode="&#x11B;"
      horiz-adv-x="800" d="M400 800M100 800A299.99999999999994 299.99999999999994 0 1 1 700 800A299.99999999999994 299.99999999999994 0 1 1 100 800" />
    <glyph glyph-name="disc-284"
      unicode="&#x11C;"
      horiz-adv-x="800" d="M400 800M100 800A299.99999999999994 299.99999999999994 0 1 1 700 800A299.99999999999994 299.99999999999994 0 1 1 100 800" />
    <glyph glyph-name="disc-285"
      unicode="&#x11D;"
      horiz-adv-x="800" d="M400 800M100 800A299.99999999999994 299.99999999999994 0 1 1 700 800A299.99999999999994 299.99999999999994 0 1 1 100 800" />
    <glyph glyph-name="disc-286"
      unicode="&#x11E;"
      horiz-adv-x="800" d="M400 800M100 800A299.99999999999994 299.99999999999994 0 1 1 700 800A299.99999999999994 299.99999999999994 0 1 1 100 800" />
    <glyph glyph-name="disc-287"
      unicode="&#x11F;"
      horiz-adv-x="800" d="M400 800M100 800A299.99999999999994 299.99999999999994 0 1 1 700 800A299.99999999999994 299.99999999999994 0 1 1 100 800" />
    <glyph glyph-name="disc-288"
      unicode="&#x120;"
      horiz-adv-x="800" d="M400 800M100 800A299.99999999999994 299.99999999999994 0 1 1 700 800A299.99999999999994 299.99999999999994 0 1 1 100 800" />
    <glyph glyph-name="disc-289"
      unicode="&#x121;"
      horiz-adv-x="800" d="M400 800M100 800A299.99999999999994 299.99999999999994 0 1 1 700 800A299.99999999999994 299.99999999999994 0 1 1 100 800" />
    <glyph glyph-name="disc-290"
      unicode="&#x122;"
      horiz-adv-x="800" d="M400 800M100 800A299.99999999999994 299.99999999999994 0 1 1 700 800A299.99999999999994 299.99999999999994 0 1 1 100 800" />
    <glyph glyph-name="disc-291"
      unicode="&#x123;"
      horiz-adv-x="800" d="M400 800M100 800A299.99999999999994 299.99999999999994 0 1 1 700 800A299.99999999999994 299.99999999999994 0 1 1 100 800" />
    <glyph glyph-name="disc-292"
      unicode="&#x124;"
      horiz-adv-x="800" d="M400 800M100 800A299.99999999999994 299.99999999999994 0 1 1 700 800A299.99999999999994 299.99999999999994 0 1 1 100 800" />
    <glyph glyph-name="disc-293"
      unicode="&#x125;"
      horiz-adv-x="800" d="M400 800M100 800A299.99999999999994 299.99999999999994 0 1 1 700 800A299.99999999999994 299.99999999999994 0 1 1 100 800" />
    <glyph glyph-name="disc-294"
      unicode="&#x126;"
      horiz-adv-x="800" d="M400 800M100 800A299.99999999999994 299.99999999999994 0 1 1 700 800A299.99999999999994 299.99999999999994 0 1 1 100 800" />
    <glyph glyph-name="disc-295"
      unicode="&#x127;"
      horiz-adv-x="800" d="M400 800M100 800A299.99999999999994 299.99999999999994 0 1 1 700 800A299.99999999999994 299.99999999999994 0 1 1 100 800" />
    <glyph glyph-name="disc-296"
      unicode="&#x128;"
      horiz-adv-x="800" d="M400 800M100 800A299.99999999999994 299.99999999999994 0 1 1 700 800A299.99999999999994 299.99999999999994 0 1 1 100 800" />
    <glyph glyph-name="disc-297"
      unicode="&#x129;"
      horiz-adv-x="800" d="M400 800M100 800A299.99999999999994 299.99999999999994 0 1 1 700 800A299.99999999999994 299.99999999999994 0 1 1 100 800" />
    <glyph glyph-name="disc-298"
      unicode="&#x12A;"
      horiz-adv-x="800" d="M400 800M100 800A299.99999999999994 299.99999999999994 0 1 1 700 800A299.99999999999994 299.99999999999994 0 1 1 100 800" />
    <glyph glyph-name="disc-299"
      unicode="&#x12B;"
      horiz-adv-x="800" d="M400 800M100 800A299.99999999999994 299.99999999999994 0 1 1 700 800A299.99999999999994 299.99999999999994 0 1 1 100 800" />
    <glyph glyph-name="disc-300"
      unicode="&#x12C;"
      horiz-adv-x="800" d="M400 800M100 800A299.99999999999994 299.99999999999994 0 1 1 700 800A299.99999999999994 299.99999999999994 0 1 1 100 800" />
    <glyph glyph-name="disc-301"
      unicode="&#x12D;"
      horiz-adv-x="800" d="M400 800M100 800A299.99999999999994 299.99999999999994 0 1 1 700 800A299.99999999999994 299.99999999999994 0 1 1 100 800" />
    <glyph glyph-name="disc-302"
      unicode="&#x12E;"
      horiz-adv-x="800" d="M400 800M100 800A299.99999999999994 299.99999999999994 0 1 1 700 800A299.99999999999994 299.99999999999994 0 1 1 100 800" />
    <glyph glyph-name="disc-303"
      unicode="&#x12F;"
      horiz-adv-x="800" d="M400 800M100 800A299.99999999999994 299.99999999999994 0 1 1 700 800A299.99999999999994 299.99999999999994 0 1 1 100 800" />
    <glyph glyph-name="disc-304"
      unicode="&#x130;"
      horiz-adv-x="800" d="M400 800M100 800A299.99999999999994 299.99999999999994 0 1 1 700 800A299.99999999999994 299.99999999999994 0 1 1 100 800" />
    <glyph glyph-name="disc-305"
      unicode="&#x131;"
      horiz-adv-x="800" d="M400 800M100 800A299.99999999999994 299.99999999999994 0 1 1 700 800A299.99999999999994 299.99999999999994 0 1 1 100 800" />
    <glyph glyph-name="disc-306"
      unicode="&#x132;"
      horiz-adv-x="800" d="M400 800M100 800A299.99999999999994 299.99999999999994 0 1 1 700 800A299.99999999999994 299.99999999999994 0 1 1 100 800" />
    <glyph glyph-name="disc-307"
      unicode="&#x133;"
      horiz-adv-x="800" d="M400 800M100 800A299.99999999999994 299.99999999999994 0 1 1 700 800A299.99999999999994 299.99999999999994 0 1 1 100 800" />
    <glyph glyph-name="disc-308"
      unicode="&#x134;"
      horiz-adv-x="800" d="M400 800M100 800A299.99999999999994 299.99999999999994 0 1 1 700 800A299.99999999999994 299.99999999999994 0 1 1 100 800" />
    <glyph glyph-name="disc-309"
      unicode="&#x135;"
      horiz-adv-x="800" d="M400 800M100 800A299.99999999999994 299.99999999999994 0 1 1 700 800A299.99999999999994 299.99999999999994 0 1 1 100 800" />
    <glyph glyph-name="disc-310"
      unicode="&#x136;"
      horiz-adv-x="800" d="M400 800M100 800A299.99999999999994 299.99999999999994 0 1 1 700 800A299.99999999999994 299.99999999999994 0 1 1 100 800" />
    <glyph glyph-name="disc-311"
      unicode="&#x137;"
      horiz-adv-x="800" d="M400 800M100 800A299.99999999999994 299.99999999999994 0 1 1 700 800A299.99999999999994 299.99999999999994 0 1 1 100 800" />
    <glyph glyph-name="disc-312"
      unicode="&#x138;"
      horiz-adv-x="800" d="M400 800M100 800A299.99999999999994 299.99999999999994 0 1 1 700 800A299.99999999999994 299.99999999999994 0 1 1 100 800" />
    <glyph glyph-name="disc-313"
      unicode="&#x139;"
      horiz-adv-x="800" d="M400 800M100 800A299.99999999999994 299.99999999999994 0 1 1 700 800A299.99999999999994 299.99999999999994 0 1 1 100 800" />
    <glyph glyph-name="disc-314"
      unicode="&#x13A;"
      horiz-adv-x="800" d="M400 800M100 800A299.99999999999994 299.99999999999994 0 1 1 700 800A299.99999999999994 299.99999999999994 0 1 1 100 800" />
    <glyph glyph-name="disc-315"
      unicode="&#x13B;"
      horiz-adv-x="800" d="M400 800M100 800A299.99999999999994 299.99999999999994 0 1 1 700 800A299.99999999999994 299.99999999999994 0 1 1 100 800" />
    <glyph glyph-name="disc-316"
      unicode="&#x13C;"
      horiz-adv-x="800" d="M400 800M100 800A299.99999999999994 299.99999999999994 0 1 1 700 800A299.99999999999994 299.99999999999994 0 1 1 100 800" />
    <glyph glyph-name="disc-317"
      unicode="&#x13D;"
      horiz-adv-x="800" d="M400 800M100 800A299.99999999999994 299.99999999999994 0 1 1 700 800A299.99999999999994 299.99999999999994 0 1 1 100 800" />
    <glyph glyph-name="disc-318"
      unicode="&#x13E;"
      horiz-adv-x="800" d="M400 800M100 800A299.99999999999994 299.99999999999994 0 1 1 700 800A299.99999999999994 299.99999999999994 0 1 1 100 800" />
    <glyph glyph-name="disc-319"
      unicode="&#x13F;"
      horiz-adv-x="800" d="M400 800M100 800A299.99999999999994 299.99999999999994 0 1 1 700 800A299.99999999999994 299.99999999999994 0 1 1 100 800" />
    <glyph glyph-name="disc-320"
      unicode="&#x140;"
      horiz-adv-x="800" d="M400 800M100 800A299.99999999999994 299.99999999999994 0 1 1 700 800A299.99999999999994 299.99999999999994 0 1 1 100 800" />
    <glyph glyph-name="disc-321"
      unicode="&#x141;"
      horiz-adv-x="800" d="M400 800M100 800A299.99999999999994 299.99999999999994 0 1 1 700 800A299.99999999999994 299.99999999999994 0 1 1 100 800" />
    <glyph glyph-name="disc-322"
      unicode="&#x142;"
      horiz-adv-x="800" d="M400 800M100 800A299.99999999999994 299.99999999999994 0 1 1 700 800A299.99999999999994 299.99999999999994 0 1 1 100 800" />
    <glyph glyph-name="disc-323"
      unicode="&#x143;"
      horiz-adv-x="800" d="M400 800M100 800A299.99999999999994 299.99999999999994 0 1 1 700 800A299.99999999999994 299.99999999999994 0 1 1 100 800" />
    <glyph glyph-name="disc-324"
      unicode="&#x144;"
      horiz-adv-x="800" d="M400 800M100 800A299.99999999999994 299.99999999999994 0 1 1 700 800A299.99999999999994 299.99999999999994 0 1 1 100 800" />
    <glyph glyph-name="disc-325"
      unicode="&#x145;"
      horiz-adv-x="800" d="M400 800M100 800A299.99999999999994 299.99999999999994 0 1 1 700 800A299.99999999999994 299.99999999999994 0 1 1 100 800" />
    <glyph glyph-name="disc-326"
      unicode="&#x146;"
      horiz-adv-x="800" d="M400 800M100 800A299.99999999999994 299.99999999999994 0 1 1 700 800A299.99999999999994 299.99999999999994 0 1 1 100 800" />
    <glyph glyph-name="disc-327"
      unicode="&#x147;"
      horiz-adv-x="800" d="M400 800M100 800A299.99999999999994 299.99999999999994 0 1 1 700 800A299.99999999999994 299.99999999999994 0 1 1 100 800" />
    <glyph glyph-name="disc-328"
      unicode="&#x148;"
      horiz-adv-x="800" d="M400 800M100 800A299.99999999999994 299.99999999999994 0 1 1 700 800A299.99999999999994 299.99999999999994 0 1 1 100 800" />
    <glyph glyph-name="disc-329"
      unicode="&#x149;"
      horiz-adv-x="800" d="M400 800M100 800A299.99999999999994 299.99999999999994 0 1 1 700 800A299.99999999999994 299.99999999999994 0 1 1 100 800" />
    <glyph glyph-name="disc-330"
      unicode="&#x14A;"
      horiz-adv-x="800" d="M400 800M100 800A299.99999999999994 299.99999999999994 0 1 1 700 800A299.99999999999994 299.99999999999994 0 1 1 100 800" />
    <glyph glyph-name="disc-331"
      unicode="&#x14B;"
      horiz-adv-x="800" d="M400 800M100 800A299.99999999999994 299.99999999999994 0 1 1 700 800A299.99999999999994 299.99999999999994 0 1 1 100 800" />
    <glyph glyph-name="disc-332"
      unicode="&#x14C;"
      horiz-adv-x="800" d="M400 800M100 800A299.99999999999994 299.99999999999994 0 1 1 700 800A299.99999999999994 299.99999999999994 0 1 1 100 800" />
    <glyph glyph-name="disc-333"
      unicode="&#x14D;"
      horiz-adv-x="800" d="M400 800M100 800A299.99999999999994 299.99999999999994 0 1 1 700 800A299.99999999999994 299.99999999999994 0 1 1 100 800" />
    <glyph glyph-name="disc-334"
      unicode="&#x14E;"
      horiz-adv-x="800" d="M400 800M100 800A299.99999999999994 299.99999999999994 0 1 1 700 800A299.99999999999994 299.99999999999994 0 1 1 100 800" />
    <glyph glyph-name="disc-335"
      unicode="&#x14F;"
      horiz-adv-x="800" d="M400 800M100 800A299.99999999999994 299.99999999999994 0 1 1 700 800A299.99999999999994 299.99999999999994 0 1 1 100 800" />
    <glyph glyph-name="disc-336"
      unicode="&#x150;"
      horiz-adv-x="800" d="M400 800M100 800A299.99999999999994 299.99999999999994 0 1 1 700 800A299.99999999999994 299.99999999999994 0 1 1 100 800" />
    <glyph glyph-name="disc-337"
      unicode="&#x151;"
      horiz-adv-x="800" d="M400 800M100 800A299.99999999999994 299.99999999999994 0 1 1 700 800A299.99999999999994 299.99999999999994 0 1 1 100 800" />
    <glyph glyph-name="disc-338"
      unicode="&#x152;"
      horiz-adv-x="800" d="M400 800M100 800A299.99999999999994 299.99999999999994 0 1 1 700 800A299.99999999999994 299.99999999999994 0 1 1 100 800" />
    <glyph glyph-name="disc-339"
      unicode="&#x153;"
      horiz-adv-x="800" d="M400 800M100 800A299.99999999999994 299.99999999999994 0 1 1 700 800A299.99999999999994 299.99999999999994 0 1 1 100 800" />
    <glyph glyph-name="disc-340"
      unicode="&#x154;"
      horiz-adv-x="800" d="M400 800M100 800A299.99999999999994 299.99999999999994 0 1 1 700 800A299.99999999999994 299.99999999999994 0 1 1 100 800" />
    <glyph glyph-name="disc-341"
      unicode="&#x155;"
      horiz-adv-x="800" d="M400 800M100 800A299.99999999999994 299.99999999999994 0 1 1 700 800A299.99999999999994 299.99999999999994 0 1 1 100 800" />
    <glyph glyph-name="disc-342"
      unicode="&#x156;"
      horiz-adv-x="800" d="M400 800M100 800A299.99999999999994 299.99999999999994 0 1 1 700 800A299.99999999999994 299.99999999999994 0 1 1 100 800" />
    <glyph glyph-name="disc-343"
      unicode="&#x157;"
      horiz-adv-x="800" d="M400 800M100 800A299.99999999999994 299.99999999999994 0 1 1 700 800A299.99999999999994 299.99999999999994 0 1 1 100 800" />
    <glyph glyph-name="disc-344"
      unicode="&#x158;"
      horiz-adv-x="800" d="M400 800M100 800A299.99999999999994 299.99999999999994 0 1 1 700 800A299.99999999999994 299.99999999999994 0 1 1 100 800" />
    <glyph glyph-name="disc-345"
      unicode="&#x159;"
      horiz-adv-x="800" d="M400 800M100 800A299.99999999999994 299.99999999999994 0 1 1 700 800A299.99999999999994 299.99999999999994 0 1 1 100 800" />
    <glyph glyph-name="disc-346"
      unicode="&#x15A;"
      horiz-adv-x="800" d="M400 800M100 800A299.99999999999994 299.99999999999994 0 1 1 700 800A299.99999999999994 299.99999999999994 0 1 1 100 800" />
    <glyph glyph-name="disc-347"
      unicode="&#x15B;"
      horiz-adv-x="800" d="M400 800M100 800A299.99999999999994 299.99999999999994 0 1 1 700 800A299.99999999999994 299.99999999999994 0 1 1 100 800" />
    <glyph glyph-name="disc-348"
      unicode="&#x15C;"
      horiz-adv-x="800" d="M400 800M100 800A299.99999999999994 299.99999999999994 0 1 1 700 800A299.99999999999994 299.99999999999994 0 1 1 100 800" />
    <glyph glyph-name="disc-349"
      unicode="&#x15D;"
      horiz-adv-x="800" d="M400 800M100 800A299.99999999999994 299.99999999999994 0 1 1 700 800A299.99999999999994 299.99999999999994 0 1 1 100 800" />
    <glyph glyph-name="disc-350"
      unicode="&#x15E;"
      horiz-adv-x="800" d="M400 800M100 800A299.99999999999994 299.99999999999994 0 1 1 700 800A299.99999999999994 299.99999999999994 0 1 1 100 800" />
    <glyph glyph-name="disc-351"
      unicode="&#x15F;"
      horiz-adv-x="800" d="M400 800M100 800A299.99999999999994 299.99999999999994 0 1 1 700 800A299.99999999999994 299.99999999999994 0 1 1 100 800" />
    <glyph glyph-name="disc-352"
      unicode="&#x160;"
      horiz-adv-x="800" d="M400 800M100 800A299.99999999999994 299.99999999999994 0 1 1 700 800A299.99999999999994 299.99999999999994 0 1 1 100 800" />
    <glyph glyph-name="disc-353"
      unicode="&#x161;"
      horiz-adv-x="800" d="M400 800M100 800A299.99999999999994 299.99999999999994 0 1 1 700 800A299.99999999999994 299.99999999999994 0 1 1 100 800" />
    <glyph glyph-name="disc-354"
      unicode="&#x162;"
      horiz-adv-x="800" d="M400 800M100 800A299.99999999999994 299.99999999999994 0 1 1 700 800A299.99999999999994 299.99999999999994 0 1 1 100 800" />
    <glyph glyph-name="disc-355"
      unicode="&#x163;"
      horiz-adv-x="800" d="M400 800M100 800A299.99999999999994 299.99999999999994 0 1 1 700 800A299.99999999999994 299.99999999999994 0 1 1 100 800" />
    <glyph glyph-name="disc-356"
      unicode="&#x164;"
      horiz-adv-x="800" d="M400 800M100 800A299.99999999999994 299.99999999999994 0 1 1 700 800A299.99999999999994 299.99999999999994 0 1 1 100 800" />
    <glyph glyph-name="disc-357"
      unicode="&#x165;"
      horiz-adv-x="800" d="M400 800M100 800A299.99999999999994 299.99999999999994 0 1 1 700 800A299.99999999999994 299.99999999999994 0 1 1 100 800" />
    <glyph glyph-name="disc-358"
      unicode="&#x166;"
      horiz-adv-x="800" d="M400 800M100 800A299.99999999999994 299.99999999999994 0 1 1 700 800A299.99999999999994 299.99999999999994 0 1 1 100 800" />
    <glyph glyph-name="disc-359"
      unicode="&#x167;"
      horiz-adv-x="800" d="M400 800M100 800A299.99999999999994 299.99999999999994 0 1 1 700 800A299.99999999999994 299.99999999999994 0 1 1 100 800" />
    <glyph glyph-name="disc-360"
      unicode="&#x168;"
      horiz-adv-x="800" d="M400 800M100 800A299.99999999999994 299.99999999999994 0 1 1 700 800A299.99999999999994 299.99999999999994 0 1 1 100 800" />
    <glyph glyph-name="disc-361"
      unicode="&#x169;"
      horiz-adv-x="800" d="M400 800M100 800A299.99999999999994 299.99999999999994 0 1 1 700 800A299.99999999999994 299.99999999999994 0 1 1 100 800" />
    <glyph glyph-name="disc-362"
      unicode="&#x16A;"
      horiz-adv-x="800" d="M400 800M100 800A299.99999999999994 299.99999999999994 0 1 1 700 800A299.99999999999994 299.99999999999994 0 1 1 100 800" />
    <glyph glyph-name="disc-363"
      unicode="&#x16B;"
      horiz-adv-x="800" d="M400 800M100 800A299.99999999999994 299.99999999999994 0 1 1 700 800A299.99999999999994 299.99999999999994 0 1 1 100 800" />
    <glyph glyph-name="disc-364"
      unicode="&#x16C;"
      horiz-adv-x="800" d="M400 800M100 800A299.99999999999994 299.99999999999994 0 1 1 700 800A299.99999999999994 299.99999999999994 0 1 1 100 800" />
    <glyph glyph-name="disc-365"
      unicode="&#x16D;"
      horiz-adv-x="800" d="M400 800M100 800A299.99999999999994 299.99999999999994 0 1 1 700 800A299.99999999999994 299.99999999999994 0 1 1 100 800" />
    <glyph glyph-name="disc-366"
      unicode="&#x16E;"
      horiz-adv-x="800" d="M400 800M100 800A299.99999999999994 299.99999999999994 0 1 1 700 800A299.99999999999994 299.99999999999994 0 1 1 100 800" />
    <glyph glyph-name="disc-367"
      unicode="&#x16F;"
      horiz-adv-x="800" d="M400 800M100 800A299.99999999999994 299.99999999999994 0 1 1 700 800A299.99999999999994 299.99999999999994 0 1 1 100 800" />
    <glyph glyph-name="disc-368"
      unicode="&#x170;"
      horiz-adv-x="800" d="M400 800M100 800A299.99999999999994 299.99999999999994 0 1 1 700 800A299.99999999999994 299.99999999999994 0 1 1 100 800" />
    <glyph glyph-name="disc-369"
      unicode="&#x171;"
      horiz-adv-x="800" d="M400 800M100 800A299.99999999999994 299.99999999999994 0 1 1 700 800A299.99999999999994 299.99999999999994 0 1 1 100 800" />
    <glyph glyph-name="disc-370"
      unicode="&#x172;"
      horiz-adv-x="800" d="M400 800M100 800A299.99999999999994 299.99999999999994 0 1 1 700 800A299.99999999999994 299.99999999999994 0 1 1 100 800" />
    <glyph glyph-name="disc-371"
      unicode="&#x173;"
      horiz-adv-x="800" d="M400 800M100 800A299.99999999999994 299.99999999999994 0 1 1 700 800A299.99999999999994 299.99999999999994 0 1 1 100 800" />
    <glyph glyph-name="disc-372"
      unicode="&#x174;"
      horiz-adv-x="800" d="M400 800M100 800A299.99999999999994 299.99999999999994 0 1 1 700 800A299.99999999999994 299.99999999999994 0 1 1 100 800" />
    <glyph glyph-name="disc-373"
      unicode="&#x175;"
      horiz-adv-x="800" d="M400 800M100 800A299.99999999999994 299.99999999999994 0 1 1 700 800A299.99999999999994 299.99999999999994 0 1 1 100 800" />
    <glyph glyph-name="disc-374"
      unicode="&#x176;"
      horiz-adv-x="800" d="M400 800M100 800A299.99999999999994 299.99999999999994 0 1 1 700 800A299.99999999999994 299.99999999999994 0 1 1 100 800" />
    <glyph glyph-name="disc-375"
      unicode="&#x177;"
      horiz-adv-x="800" d="M400 800M100 800A299.99999999999994 299.99999999999994 0 1 1 700 800A299.99999999999994 299.99999999999994 0 1 1 100 800" />
    <glyph glyph-name="disc-376"
      unicode="&#x178;"
      horiz-adv-x="800" d="M400 800M100 800A299.99999999999994 299.99999999999994 0 1 1 700 800A299.99999999999994 299.99999999999994 0 1 1 100 800" />
    <glyph glyph-name="disc-377"
      unicode="&#x179;"
      horiz-adv-x="800" d="M400 800M100 800A299.99999999999994 299.99999999999994 0 1 1 700 800A299.99999999999994 299.99999999999994 0 1 1 100 800" />
    <glyph glyph-name="disc-378"
      unicode="&#x17A;"
      horiz-adv-x="800" d="M400 800M100 800A299.99999999999994 299.99999999999994 0 1 1 700 800A299.99999999999994 299.99999999999994 0 1 1 100 800" />
    <glyph glyph-name="disc-379"
      unicode="&#x17B;"
      horiz-adv-x="800" d="M400 800M100 800A299.99999999999994 299.99999999999994 0 1 1 700 800A299.99999999999994 299.99999999999994 0 1 1 100 800" />
    <glyph glyph-name="disc-380"
      unicode="&#x17C;"
      horiz-adv-x="800" d="M400 800M100 800A299.99999999999994 299.99999999999994 0 1 1 700 800A299.99999999999994 299.99999999999994 0 1 1 100 800" />
    <glyph glyph-name="disc-381"
      unicode="&#x17D;"
      horiz-adv-x="800" d="M400 800M100 800A299.99999999999994 299.99999999999994 0 1 1 700 800A299.99999999999994 299.99999999999994 0 1 1 100 800" />
    <glyph glyph-name="disc-382"
      unicode="&#x17E;"
      horiz-adv-x="800" d="M400 800M100 800A299.99999999999994 299.99999999999994 0 1 1 700 800A299.99999999999994 299.99999999999994 0 1 1 100 800" />
    <glyph glyph-name="disc-383"
      unicode="&#x17F;"
      horiz-adv-x="800" d="M400 800M100 800A299.99999999999994 299.99999999999994 0 1 1 700 800A299.99999999999994 299.99999999999994 0 1 1 100 800" />
    <glyph glyph-name="disc-384"
      unicode="&#x180;"
      horiz-adv-x="800" d="M400 800M100 800A299.99999999999994 299.99999999999994 0 1 1 700 800A299.99999999999994 299.99999999999994 0 1 1 100 800" />
    <glyph glyph-name="disc-385"
      unicode="&#x181;"
      horiz-adv-x="800" d="M400 800M100 800A299.99999999999994 299.99999999999994 0 1 1 700 800A299.99999999999994 299.99999999999994 0 1 1 100 800" />
    <glyph glyph-name="disc-386"
      unicode="&#x182;"
      horiz-adv-x="800" d="M400 800M100 800A299.99999999999994 299.99999999999994 0 1 1 700 800A299.99999999999994 299.99999999999994 0 1 1 100 800" />
    <glyph glyph-name="disc-387"
      unicode="&#x183;"
      horiz-adv-x="800" d="M400 800M100 800A299.99999999999994 299.99999999999994 0 1 1 700 800A299.99999999999994 299.99999999999994 0 1 1 100 800" />
    <glyph glyph-name="disc-388"
      unicode="&#x184;"
      horiz-adv-x="800" d="M400 800M100 800A299.99999999999994 299.99999999999994 0 1 1 700 800A299.99999999999994 299.99999999999994 0 1 1 100 800" />
    <glyph glyph-name="disc-389"
      unicode="&#x185;"
      horiz-adv-x="800" d="M400 800M100 800A299.99999999999994 299.99999999999994 0 1 1 700 800A299.99999999999994 299.99999999999994 0 1 1 100 800" />
    <glyph glyph-name="disc-390"
      unicode="&#x186;"
      horiz-adv-x="800" d="M400 800M100 800A299.99999999999994 299.99999999999994 0 1 1 700 800A299.99999999999994 299.99999999999994 0 1 1 100 800" />
    <glyph glyph-name="disc-391"
      unicode="&#x187;"
      horiz-adv-x="800" d="M400 800M100 800A299.99999999999994 299.99999999999994 0 1 1 700 800A299.99999999999994 299.99999999999994 0 1 1 100 800" />
    <glyph glyph-name="disc-392"
      unicode="&#x188;"
      horiz-adv-x="800" d="M400 800M100 800A299.99999999999994 299.99999999999994 0 1 1 700 800A299.99999999999994 299.99999999999994 0 1 1 100 800" />
    <glyph glyph-name="disc-393"
      unicode="&#x189;"
      horiz-adv-x="800" d="M400 800M100 800A299.99999999999994 299.99999999999994 0 1 1 700 800A299.99999999999994 299.99999999999994 0 1 1 100 800" />
    <glyph glyph-name="disc-394"
      unicode="&#x18A;"
      horiz-adv-x="800" d="M400 800M100 800A299.99999999999994 299.99999999999994 0 1 1 700 800A299.99999999999994 299.99999999999994 0 1 1 100 800" />
    <glyph glyph-name="disc-395"
      unicode="&#x18B;"
      horiz-adv-x="800" d="M400 800M100 800A299.99999999999994 299.99999999999994 0 1 1 700 800A299.99999999999994 299.99999999999994 0 1 1 100 800" />
    <glyph glyph-name="disc-396"
      unicode="&#x18C;"
      horiz-adv-x="800" d="M400 800M100 800A299.99999999999994 299.99999999999994 0 1 1 700 800A299.99999999999994 299.99999999999994 0 1 1 100 800" />
    <glyph glyph-name="disc-397"
      unicode="&#x18D;"
      horiz-adv-x="800" d="M400 800M100 800A299.99999999999994 299.99999999999994 0 1 1 700 800A299.99999999999994 299.99999999999994 0 1 1 100 800" />
    <glyph glyph-name="disc-398"
      unicode="&#x18E;"
      horiz-adv-x="800" d="M400 800M100 800A299.99999999999994 299.99999999999994 0 1 1 700 800A299.99999999999994 299.99999999999994 0 1 1 100 800" />
    <glyph glyph-name="disc-399"
      unicode="&#x18F;"
      horiz-adv-x="800" d="M400 800M100 800A299.99999999999994 299.99999999999994 0 1 1 700 800A299.99999999999994 299.99999999999994 0 1 1 100 800" />
    <glyph glyph-name="disc-400"
      unicode="&#x190;"
      horiz-adv-x="800" d="M400 800M100 800A299.99999999999994 299.99999999999994 0 1 1 700 800A299.99999999999994 299.99999999999994 0 1 1 100 800" />
    <glyph glyph-name="disc-401"
      unicode="&#x191;"
      horiz-adv-x="800" d="M400 800M100 800A299.99999999999994 299.99999999999994 0 1 1 700 800A299.99999999999994 299.99999999999994 0 1 1 100 800" />
    <glyph glyph-name="disc-402"
      unicode="&#x192;"
      horiz-adv-x="800" d="M400 800M100 800A299.99999999999994 299.99999999999994 0 1 1 700 800A299.99999999999994 299.99999999999994 0 1 1 100 800" />
    <glyph glyph-name="disc-403"
      unicode="&#x193;"
      horiz-adv-x="800" d="M400 800M100 800A299.99999999999994 299.99999999999994 0 1 1 700 800A299.99999999999994 299.99999999999994 0 1 1 100 800" />
    <glyph glyph-name="disc-404"
      unicode="&#x194;"
      horiz-adv-x="800" d="M400 800M100 800A299.99999999999994 299.99999999999994 0 1 1 700 800A299.99999999999994 299.99999999999994 0 1 1 100 800" />
    <glyph glyph-name="disc-405"
      unicode="&#x195;"
      horiz-adv-x="800" d="M400 800M100 800A299.99999999999994 299.99999999999994 0 1 1 700 800A299.99999999999994 299.99999999999994 0 1 1 100 800" />
    <glyph glyph-name="disc-406"
      unicode="&#x196;"
      horiz-adv-x="800" d="M400 800M100 800A299.99999999999994 299.99999999999994 0 1 1 700 800A299.99999999999994 299.99999999999994 0 1 1 100 800" />
    <glyph glyph-name="disc-407"
      unicode="&#x197;"
      horiz-adv-x="800" d="M400 800M100 800A299.99999999999994 299.99999999999994 0 1 1 700 800A299.99999999999994 299.99999999999994 0 1 1 100 800" />
    <glyph glyph-name="disc-408"
      unicode="&#x198;"
      horiz-adv-x="800" d="M400 800M100 800A299.99999999999994 299.99999999999994 0 1 1 700 800A299.99999999999994 299.99999999999994 0 1 1 100 800" />
    <glyph glyph-name="disc-409"
      unicode="&#x199;"
      horiz-adv-x="800" d="M400 800M100 800A299.99999999999994 299.99999999999994 0 1 1 700 800A299.99999999999994 299.99999999999994 0 1 1 100 800" />
    <glyph glyph-name="disc-410"
      unicode="&#x19A;"
      horiz-adv-x="800" d="M400 800M100 800A299.99999999999994 299.99999999999994 0 1 1 700 800A299.99999999999994 299.99999999999994 0 1 1 100 800" />
    <glyph glyph-name="disc-411"
      unicode="&#x19B;"
      horiz-adv-x="800" d="M400 800M100 800A299.99999999999994 299.99999999999994 0 1 1 700 800A299.99999999999994 299.99999999999994 0 1 1 100 800" />
    <glyph glyph-name="disc-412"
      unicode="&#x19C;"
      horiz-adv-x="800" d="M400 800M100 800A299.99999999999994 299.99999999999994 0 1 1 700 800A299.99999999999994 299.99999999999994 0 1 1 100 800" />
    <glyph glyph-name="disc-413"
      unicode="&#x19D;"
      horiz-adv-x="800" d="M400 800M100 800A299.99999999999994 299.99999999999994 0 1 1 700 800A299.99999999999994 299.99999999999994 0 1 1 100 800" />
    <glyph glyph-name="disc-414"
      unicode="&#x19E;"
      horiz-adv-x="800" d="M400 800M100 800A299.99999999999994 299.99999999999994 0 1 1 700 800A299.99999999999994 299.99999999999994 0 1 1 100 800" />
    <glyph glyph-name="disc-415"
      unicode="&#x19F;"
      horiz-adv-x="800" d="M400 800M100 800A299.99999999999994 299.99999999999994 0 1 1 700 800A299.99999999999994 299.99999999999994 0 1 1 100 800" />
    <glyph glyph-name="disc-416"
      unicode="&#x1A0;"
      horiz-adv-x="800" d="M400 800M100 800A299.99999999999994 299.99999999999994 0 1 1 700 800A299.99999999999994 299.99999999999994 0 1 1 100 800" />
    <glyph glyph-name="disc-417"
      unicode="&#x1A1;"
      horiz-adv-x="800" d="M400 800M100 800A299.99999999999994 299.99999999999994 0 1 1 700 800A299.99999999999994 299.99999999999994 0 1 1 100 800" />
    <glyph glyph-name="disc-418"
      unicode="&#x1A2;"
      horiz-adv-x="800" d="M400 800M100 800A299.99999999999994 299.99999999999994 0 1 1 700 800A299.99999999999994 299.99999999999994 0 1 1 100 800" />
    <glyph glyph-name="disc-419"
      unicode="&#x1A3;"
      horiz-adv-x="800" d="M400 800M100 800A299.99999999999994 299.99999999999994 0 1 1 700 800A299.99999999999994 299.99999999999994 0 1 1 100 800" />
    <glyph glyph-name="disc-420"
      unicode="&#x1A4;"
      horiz-adv-x="800" d="M400 800M100 800A299.99999999999994 299.99999999999994 0 1 1 700 800A299.99999999999994 299.99999999999994 0 1 1 100 800" />
    <glyph glyph-name="disc-421"
      unicode="&#x1A5;"
      horiz-adv-x="800" d="M400 800M100 800A299.99999999999994 299.99999999999994 0 1 1 700 800A299.99999999999994 299.99999999999994 0 1 1 100 800" />
    <glyph glyph-name="disc-422"
      unicode="&#x1A6;"
      horiz-adv-x="800" d="M400 800M100 800A299.99999999999994 299.99999999999994 0 1 1 700 800A299.99999999999994 299.99999999999994 0 1 1 100 800" />
    <glyph glyph-name="disc-423"
      unicode="&#x1A7;"
      horiz-adv-x="800" d="M400 800M100 800A299.99999999999994 299.99999999999994 0 1 1 700 800A299.99999999999994 299.99999999999994 0 1 1 100 800" />
    <glyph glyph-name="disc-424"
      unicode="&#x1A8;"
      horiz-adv-x="800" d="M400 800M100 800A299.99999999999994 299.99999999999994 0 1 1 700 800A299.99999999999994 299.99999999999994 0 1 1 100 800" />
    <glyph glyph-name="disc-425"
      unicode="&#x1A9;"
      horiz-adv-x="800" d="M400 800M100 800A299.99999999999994 299.99999999999994 0 1 1 700 800A299.99999999999994 299.99999999999994 0 1 1 100 800" />
    <glyph glyph-name="disc-426"
      unicode="&#x1AA;"
      horiz-adv-x="800" d="M400 800M100 800A299.99999999999994 299.99999999999994 0 1 1 700 800A299.99999999999994 299.99999999999994 0 1 1 100 800" />
    <glyph glyph-name="disc-427"
      unicode="&#x1AB;"
      horiz-adv-x="800" d="M400 800M100 800A299.99999999999994 299.99999999999994 0 1 1 700 800A299.99999999999994 299.99999999999994 0 1 1 100 800" />
    <glyph glyph-name="disc-428"
      unicode="&#x1AC;"
      horiz-adv-x="800" d="M400 800M100 800A299.99999999999994 299.99999999999994 0 1 1 700 800A299.99999999999994 299.99999999999994 0 1 1 100 800" />
    <glyph glyph-name="disc-429"
      unicode="&#x1AD;"
      horiz-adv-x="800" d="M400 800M100 800A299.99999999999994 299.99999999999994 0 1 1 700 800A299.99999999999994 299.99999999999994 0 1 1 100 800" />
    <glyph glyph-name="disc-430"
      unicode="&#x1AE;"
      horiz-adv-x="800" d="M400 800M100 800A299.99999999999994 299.99999999999994 0 1 1 700 800A299.99999999999994 299.99999999999994 0 1 1 100 800" />
    <glyph glyph-name="disc-431"
      unicode="&#x1AF;"
      horiz-adv-x="800" d="M400 800M100 800A299.99999999999994 299.99999999999994 0 1 1 700 800A299.99999999999994 299.99999999999994 0 1 1 100 800" />
    <glyph glyph-name="disc-432"
      unicode="&#x1B0;"
      horiz-adv-x="800" d="M400 800M100 800A299.99999999999994 299.99999999999994 0 1 1 700 800A299.99999999999994 299.99999999999994 0 1 1 100 800" />
    <glyph glyph-name="disc-433"
      unicode="&#x1B1;"
      horiz-adv-x="800" d="M400 800M100 800A299.99999999999994 299.99999999999994 0 1 1 700 800A299.99999999999994 299.99999999999994 0 1 1 100 800" />
    <glyph glyph-name="disc-434"
      unicode="&#x1B2;"
      horiz-adv-x="800" d="M400 800M100 800A299.99999999999994 299.99999999999994 0 1 1 700 800A299.99999999999994 299.99999999999994 0 1 1 100 800" />
    <glyph glyph-name="disc-435"
      unicode="&#x1B3;"
      horiz-adv-x="800" d="M400 800M100 800A299.99999999999994 299.99999999999994 0 1 1 700 800A299.99999999999994 299.99999999999994 0 1 1 100 800" />
    <glyph glyph-name="disc-436"
      unicode="&#x1B4;"
      horiz-adv-x="800" d="M400 800M100 800A299.99999999999994 299.99999999999994 0 1 1 700 800A299.99999999999994 299.99999999999994 0 1 1 100 800" />
    <glyph glyph-name="disc-437"
      unicode="&#x1B5;"
      horiz-adv-x="800" d="M400 800M100 800A299.99999999999994 299.99999999999994 0 1 1 700 800A299.99999999999994 299.99999999999994 0 1 1 100 800" />
    <glyph glyph-name="disc-438"
      unicode="&#x1B6;"
      horiz-adv-x="800" d="M400 800M100 800A299.99999999999994 299.99999999999994 0 1 1 700 800A299.99999999999994 299.99999999999994 0 1 1 100 800" />
    <glyph glyph-name="disc-439"
      unicode="&#x1B7;"
      horiz-adv-x="800" d="M400 800M100 800A299.99999999999994 299.99999999999994 0 1 1 700 800A299.99999999999994 299.99999999999994 0 1 1 100 800" />
    <glyph glyph-name="disc-440"
      unicode="&#x1B8;"
      horiz-adv-x="800" d="M400 800M100 800A299.99999999999994 299.99999999999994 0 1 1 700 800A299.99999999999994 299.99999999999994 0 1 1 100 800" />
    <glyph glyph-name="disc-441"
      unicode="&#x1B9;"
      horiz-adv-x="800" d="M400 800M100 800A299.99999999999994 299.99999999999994 0 1 1 700 800A299.99999999999994 299.99999999999994 0 1 1 100 800" />
    <glyph glyph-name="disc-442"
      unicode="&#x1BA;"
      horiz-adv-x="800" d="M400 800M100 800A299.99999999999994 299.99999999999994 0 1 1 700 800A299.99999999999994 299.99999999999994 0 1 1 100 800" />
    <glyph glyph-name="disc-443"
      unicode="&#x1BB;"
      horiz-adv-x="800" d="M400 800M100 800A299.99999999999994 299.99999999999994 0 1 1 700 800A299.99999999999994 299.99999999999994 0 1 1 100 800" />
    <glyph glyph-name="disc-444"
      unicode="&#x1BC;"
      horiz-adv-x="800" d="M400 800M100 800A299.99999999999994 299.99999999999994 0 1 1 700 800A299.99999999999994 299.99999999999994 0 1 1 100 800" />
    <glyph glyph-name="disc-445"
      unicode="&#x1BD;"
      horiz-adv-x="800" d="M400 800M100 800A299.99999999999994 299.99999999999994 0 1 1 700 800A299.99999999999994 299.99999999999994 0 1 1 100 800" />
    <glyph glyph-name="disc-446"
      unicode="&#x1BE;"
      horiz-adv-x="800" d="M400 800M100 800A299.99999999999994 299.99999999999994 0 1 1 700 800A299.99999999999994 299.99999999999994 0 1 1 100 800" />
    <glyph glyph-name="disc-447"
      unicode="&#x1BF;"
      horiz-adv-x="800" d="M400 800M100 800A299.99999999999994 299.99999999999994 0 1 1 700 800A299.99999999999994 299.99999999999994 0 1 1 100 800" />
    <glyph glyph-name="disc-448"
      unicode="&#x1C0;"
      horiz-adv-x="800" d="M400 800M100 800A299.99999999999994 299.99999999999994 0 1 1 700 800A299.99999999999994 299.99999999999994 0 1 1 100 800" />
    <glyph glyph-name="disc-449"
      unicode="&#x1C1;"
      horiz-adv-x="800" d="M400 800M100 800A299.99999999999994 299.99999999999994 0 1 1 700 800A299.99999999999994 299.99999999999994 0 1 1 100 800" />
    <glyph glyph-name="disc-450"
      unicode="&#x1C2;"
      horiz-adv-x="800" d="M400 800M100 800A299.99999999999994 299.99999999999994 0 1 1 700 800A299.99999999999994 299.99999999999994 0 1 1 100 800" />
    <glyph glyph-name="disc-451"
      unicode="&#x1C3;"
      horiz-adv-x="800" d="M400 800M100 800A299.99999999999994 299.99999999999994 0 1 1 700 800A299.99999999999994 299.99999999999994 0 1 1 100 800" />
    <glyph glyph-name="disc-452"
      unicode="&#x1C4;"
      horiz-adv-x="800" d="M400 800M100 800A299.99999999999994 299.99999999999994 0 1 1 700 800A299.99999999999994 299.99999999999994 0 1 1 100 800" />
    <glyph glyph-name="disc-453"
      unicode="&#x1C5;"
      horiz-adv-x="800" d="M400 800M100 800A299.99999999999994 299.99999999999994 0 1 1 700 800A299.99999999999994 299.99999999999994 0 1 1 100 800" />
    <glyph glyph-name="disc-454"
      unicode="&#x1C6;"
      horiz-adv-x="800" d="M400 800M100 800A299.99999999999994 299.99999999999994 0 1 1 700 800A299.99999999999994 299.99999999999994 0 1 1 100 800" />
    <glyph glyph-name="disc-455"
      unicode="&#x1C7;"
      horiz-adv-x="800" d="M400 800M100 800A299.99999999999994 299.99999999999994 0 1 1 700 800A299.99999999999994 299.99999999999994 0 1 1 100 800" />
    <glyph glyph-name="disc-456"
      unicode="&#x1C8;"
      horiz-adv-x="800" d="M400 800M100 800A299.99999999999994 299.99999999999994 0 1 1 700 800A299.99999999999994 299.99999999999994 0 1 1 100 800" />
    <glyph glyph-name="disc-457"
      unicode="&#x1C9;"
      horiz-adv-x="800" d="M400 800M100 800A299.99999999999994 299.99999999999994 0 1 1 700 800A299.99999999999994 299.99999999999994 0 1 1 100 800" />
    <glyph glyph-name="disc-458"
      unicode="&#x1CA;"
      horiz-adv-x="800" d="M400 800M100 800A299.99999999999994 299.99999999999994 0 1 1 700 800A299.99999999999994 299.99999999999994 0 1 1 100 800" />
    <glyph glyph-name="disc-459"
      unicode="&#x1CB;"
      horiz-adv-x="800" d="M400 800M100 800A299.99999999999994 299.99999999999994 0 1 1 700 800A299.99999999999994 299.99999999999994 0 1 1 100 800" />
    <glyph glyph-name="disc-460"
      unicode="&#x1CC;"
      horiz-adv-x="800" d="M400 800M100 800A299.99999999999994 299.99999999999994 0 1 1 700 800A299.99999999999994 299.99999999999994 0 1 1 100 800" />
    <glyph glyph-name="disc-461"
      unicode="&#x1CD;"
      horiz-adv-x="800" d="M400 800M100 800A299.99999999999994 299.99999999999994 0 1 1 700 800A299.99999999999994 299.99999999999994 0 1 1 100 800" />
    <glyph glyph-name="disc-462"
      unicode="&#x1CE;"
      horiz-adv-x="800" d="M400 800M100 800A299.99999999999994 299.99999999999994 0 1 1 700 800A299.99999999999994 299.99999999999994 0 1 1 100 800" />
    <glyph glyph-name="disc-463"
      unicode="&#x1CF;"
      horiz-adv-x="800" d="M400 800M100 800A299.99999999999994 299.99999999999994 0 1 1 700 800A299.99999999999994 299.99999999999994 0 1 1 100 800" />
    <glyph glyph-name="disc-464"
      unicode="&#x1D0;"
      horiz-adv-x="800" d="M400 800M100 800A299.99999999999994 299.99999999999994 0 1 1 700 800A299.99999999999994 299.99999999999994 0 1 1 100 800" />
    <glyph glyph-name="disc-465"
      unicode="&#x1D1;"
      horiz-adv-x="800" d="M400 800M100 800A299.99999999999994 299.99999999999994 0 1 1 700 800A299.99999999999994 299.99999999999994 0 1 1 100 800" />
    <glyph glyph-name="disc-466"
      unicode="&#x1D2;"
      horiz-adv-x="800" d="M400 800M100 800A299.99999999999994 299.99999999999994 0 1 1 700 800A299.99999999999994 299.99999999999994 0 1 1 100 800" />
    <glyph glyph-name="disc-467"
      unicode="&#x1D3;"
      horiz-adv-x="800" d="M400 800M100 800A299.99999999999994 299.99999999999994 0 1 1 700 800A299.99999999999994 299.99999999999994 0 1 1 100 800" />
    <glyph glyph-name="disc-468"
      unicode="&#x1D4;"
      horiz-adv-x="800" d="M400 800M100 800A299.99999999999994 299.99999999999994 0 1 1 700 800A299.99999999999994 299.99999999999994 0 1 1 100 800" />
    <glyph glyph-name="disc-469"
      unicode="&#x1D5;"
      horiz-adv-x="800" d="M400 800M100 800A299.99999999999994 299.99999999999994 0 1 1 700 800A299.99999999999994 299.99999999999994 0 1 1 100 800" />
    <glyph glyph-name="disc-470"
      unicode="&#x1D6;"
      horiz-adv-x="800" d="M400 800M100 800A299.99999999999994 299.99999999999994 0 1 1 700 800A299.99999999999994 299.99999999999994 0 1 1 100 800" />
    <glyph glyph-name="disc-471"
      unicode="&#x1D7;"
      horiz-adv-x="800" d="M400 800M100 800A299.99999999999994 299.99999999999994 0 1 1 700 800A299.99999999999994 299.99999999999994 0 1 1 100 800" />
    <glyph glyph-name="disc-472"
      unicode="&#x1D8;"
      horiz-adv-x="800" d="M400 800M100 800A299.99999999999994 299.99999999999994 0 1 1 700 800A299.99999999999994 299.99999999999994 0 1 1 100 800" />
    <glyph glyph-name="disc-473"
      unicode="&#x1D9;"
      horiz-adv-x="800" d="M400 800M100 800A299.99999999999994 299.99999999999994 0 1 1 700 800A299.99999999999994 299.99999999999994 0 1 1 100 800" />
    <glyph glyph-name="disc-474"
      unicode="&#x1DA;"
      horiz-adv-x="800" d="M400 800M100 800A299.99999999999994 299.99999999999994 0 1 1 700 800A299.99999999999994 299.99999999999994 0 1 1 100 800" />
    <glyph glyph-name="disc-475"
      unicode="&#x1DB;"
      horiz-adv-x="800" d="M400 800M100 800A299.99999999999994 299.99999999999994 0 1 1 700 800A299.99999999999994 299.99999999999994 0 1 1 100 800" />
    <glyph glyph-name="disc-476"
      unicode="&#x1DC;"
      horiz-adv-x="800" d="M400 800M100 800A299.99999999999994 299.99999999999994 0 1 1 700 800A299.99999999999994 299.99999999999994 0 1 1 100 800" />
    <glyph glyph-name="disc-477"
      unicode="&#x1DD;"
      horiz-adv-x="800" d="M400 800M100 800A299.99999999999994 299.99999999999994 0 1 1 700 800A299.99999999999994 299.99999999999994 0 1 1 100 800" />
    </font>
</defs>
</svg>
